<?xml version="1.0" standalone="no"?>
<!DOCTYPE svg PUBLIC "-//W3C//DTD SVG 1.1//EN" "http://www.w3.org/Graphics/SVG/1.1/DTD/svg11.dtd" >
<svg xmlns="http://www.w3.org/2000/svg" xmlns:xlink="http://www.w3.org/1999/xlink" version="1.1">
<metadata>
Created by FontForge 20161003 at Mon Jun  4 01:13:35 2018
 By www-data
Basic glyphs (based upon Bitstream Charter): (c) Copyright 1989-1992, Bitstream Inc., Cambridge, MA. You are hereby granted permission under all Bitstream propriety rights to use, copy, modify, sublicense, sell, and redistribute the 4 Bitstream Charter (r) Type 1 outline fonts and the 4 Courier Type 1 outline fonts for any purpose and without restriction; provided, that this notice is left intact on all copies of such fonts and that Bitstream's trademark is acknowledged as shown below on all unmodified copies of the 4 Charter Type 1 fonts. Additional glyphs copyright (c) SIL International, 1997-2006. All rights reserved.  Caulixtla changes by Sam Trenholme.
</metadata>
<defs>
<font id="Caulixtla008" horiz-adv-x="1153" >
  <font-face 
    font-family="Caulixtla008"
    font-weight="400"
    font-stretch="normal"
    units-per-em="2048"
    panose-1="2 0 5 0 6 0 0 2 0 4"
    ascent="1561"
    descent="-487"
    x-height="987"
    cap-height="1374"
    bbox="-162 -528 2048 1901"
    underline-thickness="30"
    underline-position="-220"
    unicode-range="U+0020-221E"
  />
<missing-glyph horiz-adv-x="886" 
d="M68 0v1365h682v-1365h-682zM136 68h546v1229h-546v-1229z" />
    <glyph glyph-name=".notdef" horiz-adv-x="886" 
d="M68 0v1365h682v-1365h-682zM136 68h546v1229h-546v-1229z" />
    <glyph glyph-name=".null" horiz-adv-x="0" 
 />
    <glyph glyph-name="nonmarkingreturn" horiz-adv-x="682" 
 />
    <glyph glyph-name="space" unicode=" " horiz-adv-x="600" 
 />
    <glyph glyph-name="exclam" unicode="!" horiz-adv-x="692" 
d="M473 102q0 -25 -10 -48t-27.5 -40.5t-40.5 -28t-49 -10.5t-49 10.5t-40 28t-26.5 40.5t-9.5 48q0 26 9.5 49t26.5 40t40 26.5t49 9.5t49 -9.5t40.5 -26.5t27.5 -40t10 -49zM471 1274q0 -6 -3.5 -48.5t-8.5 -107t-11.5 -145t-13.5 -163.5q-17 -195 -37 -439h-100
q-21 244 -38 439q-7 83 -14 163.5t-12 145t-8.5 107t-3.5 48.5q0 62 30 97.5t95 35.5t95 -35.5t30 -97.5z" />
    <glyph glyph-name="quotedbl" unicode="&#x22;" horiz-adv-x="682" 
d="M193 862h-33l-72 500q0 48 23 74t65 26q43 0 64.5 -26t21.5 -74zM522 862h-33l-69 500q0 48 22 74t64 26q43 0 65.5 -26t22.5 -74z" />
    <glyph glyph-name="numbersign" unicode="#" horiz-adv-x="1522" 
d="M664 862l-101 -293h297l101 293h-297zM1073 862l-96 -293h330v-102h-367l-172 -514l-102 33l159 481h-297l-174 -514l-100 35l164 479h-291v102h324l100 293h-332v105h367l164 483l104 -33l-158 -450h299l162 483l109 -33l-156 -450h287v-105h-324z" />
    <glyph glyph-name="dollar" unicode="$" 
d="M848 350q0 56 -18 96t-49 68.5t-71 47t-83 32.5v-485q43 7 83 25t71 47.5t49 71.5t18 97zM535 1266q-41 -9 -76 -27.5t-61 -47.5t-41 -68.5t-15 -90.5q0 -50 18.5 -86t46.5 -61.5t62 -42.5t66 -29v453zM1034 389q0 -63 -21 -116t-54.5 -95.5t-77 -74.5t-89 -54.5
t-88.5 -34.5t-77 -14v-211h-95v211q-38 2 -88 5t-104.5 8.5t-111.5 15t-109 24.5v348h102l37 -229q14 -17 42.5 -30.5t66 -22.5t80.5 -14t85 -5v518q-67 15 -134.5 42.5t-122 71.5t-89 107.5t-34.5 151.5q0 62 17 112.5t46 90t67.5 69.5t81 51t87 34.5t84.5 19.5v154h94
v-148q66 0 128.5 -7.5t111.5 -16.5q57 -11 108 -23v-323h-107l-30 217q-48 53 -211 53v-488q44 -13 91.5 -28t92.5 -36t85 -49t70.5 -68t48 -93t17.5 -123z" />
    <glyph glyph-name="percent" unicode="%" horiz-adv-x="1761" 
d="M537 977q0 81 -9 146t-27.5 110.5t-48 70.5t-71.5 25t-72.5 -25t-50.5 -70.5t-29.5 -110.5t-9.5 -146t9.5 -146t29.5 -110.5t50.5 -70.5t72.5 -25t71.5 25t48 70.5t27.5 110.5t9 146zM1538 397q0 81 -9 146t-27.5 111t-48 71t-71.5 25q-41 0 -71.5 -25t-50.5 -71
t-29.5 -111t-9.5 -146t9.5 -146t29.5 -111.5t50.5 -71.5t71.5 -25q42 0 71.5 25t48 71.5t27.5 111.5t9 146zM694 977q0 -92 -19 -170.5t-58 -136t-98 -90.5t-138 -33t-138 33t-98.5 90.5t-59 136t-19.5 170.5q0 91 19.5 170t59 136.5t98.5 90.5t138 33t138 -33t98 -90.5
t58 -136.5t19 -170zM512 0h-129l870 1374h127zM1696 397q0 -91 -19.5 -169.5t-58.5 -136.5t-98 -91t-138 -33t-138 33t-98.5 91t-59 136.5t-19.5 169.5t19.5 170t59 136.5t98.5 90.5t138 33t138 -33t98 -90.5t58.5 -136.5t19.5 -170z" />
    <glyph glyph-name="ampersand" unicode="&#x26;" horiz-adv-x="1432" 
d="M434 682q-31 -21 -57.5 -46.5t-46.5 -56t-31.5 -68t-11.5 -83.5q0 -69 23 -127.5t63 -101t94.5 -66.5t116.5 -24q47 0 85.5 9.5t71 25.5t61 36.5t54.5 42.5zM743 1079q0 44 -11.5 84t-35.5 70.5t-60 48.5t-85 18q-42 0 -76 -15t-58 -41t-37 -61t-13 -75q0 -51 19.5 -95.5
t48 -82t61.5 -69t61 -58.5q45 22 79.5 48.5t58 60t36 75t12.5 92.5zM1014 0v49l-92 103q-40 -32 -83 -63.5t-93 -56.5t-109 -41t-131 -16q-88 0 -165.5 30.5t-135.5 84.5t-91.5 128.5t-33.5 162.5q0 67 20 122.5t56.5 100t87 78.5t110.5 59q-17 17 -46 46.5t-57 69.5
t-48.5 90t-20.5 108q0 77 29.5 140.5t82 109.5t123.5 71t154 25q78 0 144 -23.5t114 -64.5t75.5 -97.5t27.5 -123.5q0 -75 -26 -131t-68.5 -98t-96.5 -73.5t-110 -56.5l344 -371q16 21 34.5 50t35 61t29 65.5t16.5 63.5q1 9 -10.5 23t-24.5 16l-111 16v86h420v-86l-147 -22
q-15 -52 -35.5 -101t-44 -93.5t-48.5 -82.5t-47 -69l166 -191l183 -10v-88h-377z" />
    <glyph glyph-name="quotesingle" unicode="'" horiz-adv-x="350" 
d="M193 862h-33l-72 500q0 48 22 74t64 26q43 0 65.5 -26t22.5 -74z" />
    <glyph glyph-name="parenleft" unicode="(" horiz-adv-x="770" 
d="M702 -291q-107 12 -191.5 50.5t-149 99.5t-110.5 140.5t-74.5 173.5t-42 199.5t-13.5 217.5q0 167 30.5 318.5t99.5 270t179.5 195t271.5 94.5v-90q-108 -18 -182.5 -79.5t-121 -162t-67 -238.5t-20.5 -308q0 -171 20.5 -309t67 -239.5t121 -163t182.5 -79.5v-90z" />
    <glyph glyph-name="parenright" unicode=")" horiz-adv-x="770" 
d="M651 590q0 -112 -13.5 -217.5t-42 -199.5t-74.5 -173.5t-110.5 -140.5t-149 -99.5t-191.5 -50.5v90q108 18 182.5 79.5t120 163t66 239.5t20.5 309q0 170 -20.5 308t-66 238.5t-120 162t-182.5 79.5v90q160 -18 271 -94.5t180 -195t99.5 -270t30.5 -318.5z" />
    <glyph glyph-name="asterisk" unicode="*" horiz-adv-x="1024" 
d="M406 743l-142 -53l4 152l207 166l25 -19zM467 1036l-266 15l-92 116l145 43l221 -145zM618 743l-94 246l25 19l207 -166l4 -152zM526 1085h-28l-70 256l84 125l86 -125zM823 1051l-264 -15l-10 29l221 145l145 -43z" />
    <glyph glyph-name="plus" unicode="+" horiz-adv-x="2048" 
d="M1087 551v-551h-126v551h-551v127h551v551h126v-551h551v-127h-551z" />
    <glyph glyph-name="comma" unicode="," horiz-adv-x="573" 
d="M422 20q0 -77 -29.5 -141.5t-79 -113t-113.5 -78t-134 -35.5v74q54 12 96.5 32.5t71 54t43.5 82.5t14 119h-129q-2 2 -8 9.5t-12.5 19.5t-11.5 28.5t-5 37.5q0 27 9.5 52t26.5 45t40 32t51 12q44 0 76 -17.5t53 -48t31 -73t10 -91.5z" />
    <glyph glyph-name="hyphen" unicode="-" horiz-adv-x="655" 
d="M90 416v153h475v-153h-475z" />
    <glyph glyph-name="period" unicode="." horiz-adv-x="573" 
d="M401 113q0 -29 -11 -54t-30 -43.5t-44.5 -29.5t-53.5 -11q-29 0 -53.5 11t-43.5 29.5t-29.5 43.5t-10.5 54q0 28 10.5 53t29.5 43.5t43.5 29.5t53.5 11q28 0 53.5 -11t44.5 -29.5t30 -43.5t11 -53z" />
    <glyph glyph-name="slash" unicode="/" horiz-adv-x="1004" 
d="M131 -190h-131l872 1564h132z" />
    <glyph glyph-name="zero" unicode="0" 
d="M854 686q0 77 -5.5 152.5t-18.5 144.5t-34 128t-52 102t-73 67.5t-96 24.5t-96 -24.5t-72.5 -67.5t-51.5 -102t-34 -128t-18.5 -144.5t-5.5 -152.5t5.5 -152.5t18.5 -144t34 -127t51.5 -101t72.5 -67t96 -24.5t96 24.5t73 67t52 101t34 127t18.5 144t5.5 152.5zM1071 686
q0 -147 -30.5 -277.5t-92 -228.5t-155 -155.5t-218.5 -57.5t-217.5 57.5t-154 155.5t-91.5 228.5t-30 277.5q0 98 13.5 189.5t40.5 171.5t67.5 146t95.5 113.5t124 74t152 26.5t152.5 -26.5t124.5 -74t96 -113.5t68.5 -146t41 -171.5t13.5 -189.5z" />
    <glyph glyph-name="one" unicode="1" 
d="M221 0v92l207 8q19 0 32 13.5t13 31.5v1088l-317 -55v92l442 137h78v-1262q0 -18 13 -31.5t32 -13.5l192 -8v-92h-692z" />
    <glyph glyph-name="two" unicode="2" 
d="M96 0v137q156 129 287 237.5t226.5 209t148.5 198t53 205.5q0 74 -23.5 131.5t-63 97t-93 60t-113.5 20.5q-36 0 -65.5 -8t-51.5 -18t-35.5 -18t-17.5 -9v-227q-11 -10 -26 -18q-13 -7 -32 -12t-42 -5q-24 0 -46 7.5t-39.5 22.5t-27.5 37.5t-10 53.5q0 64 36.5 120
t98.5 97t143.5 64.5t171.5 23.5q100 0 184 -29t144.5 -81.5t94.5 -126t34 -162.5q0 -72 -27.5 -142t-77 -138.5t-117 -136.5t-147 -137t-169 -139t-181.5 -143h607l36 176h101v-348h-961z" />
    <glyph glyph-name="three" unicode="3" 
d="M1057 391q0 -93 -42.5 -171t-115.5 -134t-170.5 -87.5t-208.5 -31.5q-104 0 -183 23.5t-132.5 59.5t-81 78.5t-27.5 80.5q0 21 7.5 40.5t22.5 35t37.5 25t53.5 9.5q12 0 34.5 -2.5t35.5 -11.5l61 -182q40 -23 84.5 -38t93.5 -15q72 0 131 27t101 72t65 102.5t23 119.5
q0 75 -29 124.5t-74 79t-99 42t-105 12.5q-27 0 -50 -1t-40 -3q-19 -2 -35 -4v127q3 0 20 -1t33 -1q64 0 123.5 15.5t105 47t72.5 80.5t27 117q0 64 -22.5 114t-59.5 84.5t-86 52t-101 17.5q-41 0 -75 -9t-58 -20q-29 -12 -51 -28v-205q-6 -3 -30 -14.5t-62 -11.5
q-18 0 -39 5.5t-39 18.5t-29.5 35t-11.5 55q0 58 36 110.5t98 91.5t144.5 62t174.5 23q89 0 165.5 -25t133 -71t89 -111.5t32.5 -146.5q0 -116 -81.5 -201.5t-234.5 -128.5q64 -3 130 -23.5t119 -61t86.5 -102t33.5 -145.5z" />
    <glyph glyph-name="four" unicode="4" 
d="M705 1145l-461 -598h461v598zM897 408v-441h-192v441h-623v141l672 858h143v-860h174v-139h-174z" />
    <glyph glyph-name="five" unicode="5" 
d="M1059 444q0 -104 -37.5 -191.5t-110.5 -151t-181 -99t-249 -35.5q-80 0 -150.5 23t-123.5 58t-84 78t-31 83q0 56 36.5 85.5t92.5 29.5q17 0 33 -3.5t22 -5.5l78 -188q12 -12 32 -22.5t42 -18.5t44 -13t40 -5q81 0 144 30.5t106 78.5t65.5 106t22.5 112q0 86 -27 149.5
t-74 105.5t-111 62.5t-138 20.5q-51 0 -107.5 -11t-105.5 -24q-57 -15 -113 -34v710h791v-174h-646v-389q2 0 26 8.5t63 18t88 18t100 8.5q107 0 192.5 -28.5t145.5 -82.5t92.5 -132t32.5 -177z" />
    <glyph glyph-name="six" unicode="6" 
d="M862 442q0 75 -19.5 134.5t-57 101t-91 63t-121.5 21.5q-33 0 -69 -7.5t-72 -21t-70.5 -32.5t-64.5 -42q-3 -32 -3.5 -60.5t-0.5 -51.5q0 -105 16 -192t50.5 -149.5t87 -97t126.5 -34.5t128.5 29t90 78.5t53 116.5t17.5 144zM1071 469q0 -112 -39 -204.5t-106.5 -158.5
t-158 -102.5t-194.5 -36.5t-193.5 34t-155.5 108t-104 192.5t-38 286.5q0 183 55 334t159.5 259t257 167t347.5 59v-127l-70 2q-98 3 -186.5 -31.5t-159 -101.5t-118.5 -164t-64 -219q85 73 170.5 101t171.5 28q97 0 175.5 -32.5t134 -89.5t86 -135t30.5 -169z" />
    <glyph glyph-name="seven" unicode="7" 
d="M395 35v-68h-217l676 1233h-631l-33 -186h-104v360h981v-114z" />
    <glyph glyph-name="eight" unicode="8" 
d="M862 340q0 64 -27 108.5t-79 80t-127 67t-172 70.5q-39 -21 -72.5 -47t-58.5 -59.5t-39.5 -76.5t-14.5 -98q0 -66 19.5 -122t57.5 -97.5t95 -64.5t131 -23q66 0 119.5 21.5t90.5 58t57 84t20 98.5zM825 1036q0 63 -20 112.5t-54 84t-79.5 52.5t-96.5 18
q-52 0 -95.5 -19.5t-74.5 -51.5t-48 -74.5t-17 -88.5q0 -54 23 -97.5t66 -80.5t105.5 -68.5t141.5 -60.5q31 23 58.5 51t47.5 62t31.5 74t11.5 87zM1069 373q0 -88 -37.5 -162.5t-103.5 -128.5t-156.5 -84.5t-196.5 -30.5q-113 0 -204 30t-155.5 84t-99 127.5t-34.5 160.5
q0 70 24.5 124t65 95t93.5 71t110 52q-42 17 -84.5 45t-76.5 67t-55.5 88.5t-21.5 110.5q0 88 31.5 159t89 121.5t138.5 77.5t179 27q94 0 174 -27t139 -74.5t92.5 -112t33.5 -138.5q0 -65 -24.5 -118t-61.5 -94t-81 -71t-83 -49q49 -18 103 -45.5t99 -69.5t74 -99.5
t29 -135.5z" />
    <glyph glyph-name="nine" unicode="9" 
d="M858 827q0 105 -16 192t-50.5 149.5t-87.5 97t-126 34.5q-74 0 -128.5 -28.5t-90 -78.5t-53 -117t-17.5 -144q0 -75 19.5 -134.5t57 -101t91 -63t121.5 -21.5q33 0 69 7.5t72 21t70.5 32.5t64.5 42q3 32 3.5 60.5t0.5 51.5zM1071 786q0 -183 -55 -334t-160.5 -259
t-258 -167t-347.5 -59v127l69 -2q98 -3 187 31.5t160 101.5t119.5 164t64.5 219q-42 -37 -85 -61.5t-85.5 -39.5t-85.5 -21.5t-86 -6.5q-97 0 -175.5 32t-134 88.5t-86 134t-30.5 169.5q0 112 38.5 205t105.5 159.5t157.5 103t194.5 36.5q103 0 193 -34t157 -108t105 -192.5
t38 -286.5z" />
    <glyph glyph-name="colon" unicode=":" horiz-adv-x="573" 
d="M401 113q0 -29 -11 -54t-30 -43.5t-44.5 -29.5t-53.5 -11q-29 0 -53.5 11t-43.5 29.5t-29.5 43.5t-10.5 54q0 28 10.5 53t29.5 43.5t43.5 29.5t53.5 11q28 0 53.5 -11t44.5 -29.5t30 -43.5t11 -53zM401 874q0 -28 -11 -53t-30 -43.5t-44.5 -29.5t-53.5 -11
q-29 0 -53.5 11t-43.5 29.5t-29.5 43.5t-10.5 53t10.5 53.5t29.5 44t43.5 29.5t53.5 11q28 0 53.5 -11t44.5 -29.5t30 -44t11 -53.5z" />
    <glyph glyph-name="semicolon" unicode=";" horiz-adv-x="573" 
d="M422 20q0 -77 -29.5 -141.5t-79 -113t-113.5 -78t-134 -35.5v74q54 12 96.5 32.5t71 54t43.5 82.5t14 119h-129q-2 2 -8 9.5t-12.5 19.5t-11.5 28.5t-5 37.5q0 27 9.5 52t26.5 45t40 32t51 12q44 0 76 -17.5t53 -48t31 -73t10 -91.5zM399 874q0 -28 -10.5 -53
t-29.5 -43.5t-44 -29.5t-53 -11q-29 0 -53.5 11t-43.5 29.5t-29.5 43.5t-10.5 53t11 53.5t30 44t44 29.5t54 11q28 0 53 -11t43 -29.5t28.5 -44t10.5 -53.5z" />
    <glyph glyph-name="less" unicode="&#x3c;" horiz-adv-x="2048" 
d="M410 551v127l1228 471v-127l-1097 -408l1097 -407v-127z" />
    <glyph glyph-name="equal" unicode="=" horiz-adv-x="2048" 
d="M410 365v127h1228v-127h-1228zM410 737v127h1228v-127h-1228z" />
    <glyph glyph-name="greater" unicode="&#x3e;" horiz-adv-x="2048" 
d="M410 80v127l1097 407l-1097 408v127l1228 -471v-127z" />
    <glyph glyph-name="question" unicode="?" horiz-adv-x="995" 
d="M537 100q0 -26 -10 -48.5t-27.5 -39.5t-40.5 -27t-49 -10t-49 10t-40 27.5t-26.5 40.5t-9.5 49t9.5 49t26.5 40t40 26.5t49 9.5q27 0 50 -10t40 -27.5t27 -40.5t10 -49zM854 1040q0 -65 -18 -118.5t-48 -97t-69.5 -78t-82.5 -62t-87.5 -49.5t-83.5 -39v-227h-115v297
q48 16 100.5 45.5t96 73.5t72 103.5t28.5 135.5q0 143 -76 213t-217 70l-84 -209q-9 -1 -16 -1q-6 -1 -11 -1h-7q-28 0 -52.5 6t-42.5 19.5t-28.5 34.5t-10.5 50q0 36 19.5 72t60 64.5t101.5 46.5t145 18q91 0 169 -26t135 -73.5t89.5 -115.5t32.5 -152z" />
    <glyph glyph-name="at" unicode="@" horiz-adv-x="1917" 
d="M1196 805q3 13 -5 33t-24.5 38.5t-40 32t-51.5 13.5q-76 0 -137 -35.5t-104 -97t-66 -144t-23 -176.5q0 -111 41.5 -166t118.5 -55q34 0 65 13.5t57.5 33.5t48.5 43t38 43zM1769 764q0 -104 -22.5 -192.5t-61 -160.5t-89 -127.5t-106 -93t-112.5 -56.5t-108 -19
q-85 0 -122.5 42.5t-37.5 127.5q-80 -81 -152.5 -124.5t-144.5 -43.5q-56 0 -103 23.5t-81 67t-53 105t-19 138.5q0 117 43.5 219t115 177t163 118t188.5 43q22 0 48 -4t52.5 -11.5t52 -18t48.5 -22.5l37 47h114q-2 -6 -9 -35.5t-17 -73t-22.5 -98t-24.5 -109.5
q-30 -130 -66 -292q-9 -35 -9 -64.5t9 -50.5t28 -33t48 -12q45 0 100 37t102 106t79 167.5t32 220.5q0 144 -49 250t-129.5 175.5t-183.5 103.5t-211 34q-117 0 -221.5 -27.5t-193 -78t-160 -122.5t-121 -161t-76.5 -192.5t-27 -217.5q0 -156 48.5 -291t140.5 -234
t225 -155.5t303 -56.5q90 0 168 14t145 36t123.5 49t103.5 53l29 -74q-69 -37 -141 -69.5t-148.5 -57t-158 -39t-170.5 -14.5q-110 0 -213 25t-193.5 72.5t-165.5 117t-129 158.5t-84 197t-30 232q0 152 36.5 279.5t100.5 230.5t151.5 181t189.5 130t214.5 78.5t226.5 26.5
q152 0 280.5 -42.5t221.5 -125t145.5 -204t52.5 -279.5z" />
    <glyph glyph-name="A" unicode="A" horiz-adv-x="1380" 
d="M643 1143l-199 -537h400zM883 0v88l118 10q10 0 17 13.5t4 21.5l-141 375h-473l-136 -369q-2 -6 0 -13t7 -13.5t11 -10.5t11 -4l121 -10v-88h-412v88l119 25l477 1294h154l475 -1264q7 -21 13.5 -28t29.5 -11l92 -16v-88h-487z" />
    <glyph glyph-name="B" unicode="B" horiz-adv-x="1239" 
d="M936 389q0 140 -83 205t-247 65q-25 0 -55.5 -2t-57.5 -4t-47 -4t-24 -2v-541q25 -2 49 -3q20 -2 41.5 -2.5t36.5 -0.5q108 0 181.5 18t119.5 54t66 90t20 127zM854 1030q0 121 -78 185.5t-237 64.5q-16 0 -34.5 -1t-35 -2t-29.5 -2t-18 -1v-518q14 -1 28 -1
q12 -1 24.5 -1h21.5q100 0 168.5 18.5t110.5 53.5t60.5 86.5t18.5 117.5zM1159 406q0 -83 -23.5 -145.5t-63.5 -107.5t-92.5 -74.5t-110 -47t-117 -24.5t-113.5 -7h-573v88l108 8q22 2 32.5 16t10.5 29v1092q0 15 -10.5 29t-32.5 16l-108 8v88h548q122 0 209.5 -22.5
t143.5 -65.5t82 -104t26 -138t-29 -131t-73 -91t-96 -59t-97 -34q69 0 136.5 -16.5t121.5 -54.5t87.5 -100t33.5 -152z" />
    <glyph glyph-name="C" unicode="C" horiz-adv-x="1284" 
d="M1204 47q-4 -2 -39 -14.5t-91 -27t-128.5 -26.5t-150.5 -12q-115 0 -212.5 27.5t-177 76.5t-140 117t-102 148t-62.5 170t-21 184q0 159 52 291t146 226.5t226 147t293 52.5q50 0 96.5 -5.5t94.5 -15.5t101 -25t115 -34v-321h-123l-30 186q-2 14 -14 28t-21 19
q-12 5 -31.5 14t-46.5 17.5t-60 15t-71 6.5q-105 0 -195 -39t-156 -115t-103.5 -188.5t-37.5 -259.5q0 -143 35.5 -256t102.5 -192t163 -120.5t218 -41.5q36 0 65.5 5t51.5 11.5t34 12t14 6.5q16 6 26 17t13 24l47 223h119v-332z" />
    <glyph glyph-name="D" unicode="D" horiz-adv-x="1425" 
d="M1114 686q0 161 -37.5 273.5t-107 183t-168 102t-219.5 31.5h-156v-1178l166 2q118 1 214.5 33.5t164.5 102.5t105.5 181t37.5 269zM1346 690q0 -90 -17 -175.5t-53 -162.5t-92.5 -141.5t-135.5 -111.5t-181.5 -73t-231.5 -26h-569v88l108 8q22 2 33.5 16t11.5 29v1092
q0 15 -11.5 29t-33.5 16l-108 8v88h528q161 0 299 -40.5t238.5 -124.5t157.5 -213t57 -306z" />
    <glyph glyph-name="E" unicode="E" horiz-adv-x="1194" 
d="M66 0v88l106 8q22 2 33.5 16t11.5 29v1092q0 15 -11.5 29t-33.5 16l-106 8v88h995v-305h-123l-31 168q-2 15 -12.5 27t-24.5 12h-444v-510h307q14 0 25.5 12t11.5 23l21 141h104v-457h-104l-21 142q0 11 -12 24t-25 13h-307v-564h518q13 0 24 14t13 25l37 203h110v-342
h-1062z" />
    <glyph glyph-name="F" unicode="F" horiz-adv-x="1108" 
d="M926 1049l-29 188q-3 15 -12 26t-23 11h-436v-533h313q14 0 24.5 13t12.5 24l19 144h102v-461h-102l-19 143q-2 11 -13 24t-24 13h-313v-500q0 -15 10.5 -29t32.5 -16l137 -8v-88h-538v88l108 8q22 2 32.5 16t10.5 29v1092q0 15 -10.5 29t-32.5 16l-125 8v88h996v-325
h-121z" />
    <glyph glyph-name="G" unicode="G" horiz-adv-x="1423" 
d="M1268 565q-22 -2 -32.5 -14.5t-10.5 -28.5v-473q-62 -23 -132 -41q-60 -16 -137.5 -28.5t-160.5 -12.5q-114 0 -211.5 27t-177 76t-140.5 116.5t-102.5 147.5t-62.5 170.5t-21 185.5q0 161 51 293.5t147 226.5t233.5 145.5t309.5 51.5q58 0 110.5 -6.5t101.5 -16.5
t96 -22.5t94 -24.5v-331h-123l-33 184q-3 18 -15 30.5t-26 18.5q-15 6 -36.5 15t-48.5 17.5t-59.5 14.5t-68.5 6q-111 0 -203 -39t-158 -114t-102.5 -185.5t-36.5 -253.5q0 -147 37 -262t105.5 -194t165.5 -120.5t217 -41.5q34 0 65 5t55 10.5t40 10.5t20 5v409
q0 16 -10.5 28.5t-32.5 14.5l-137 10v89h534v-89z" />
    <glyph glyph-name="H" unicode="H" horiz-adv-x="1522" 
d="M938 0v88l117 8q21 2 32 16t11 29v529h-674v-529q0 -15 10.5 -29t32.5 -16l117 -8v-88h-518v88l106 8q22 2 33.5 16t11.5 29v1092q0 15 -11.5 28t-33.5 15l-106 8v90h518v-90l-117 -8q-22 -2 -32.5 -15t-10.5 -28v-461h674v461q0 15 -11 28t-32 15l-117 8v90h518v-90
l-106 -8q-22 -2 -33.5 -15t-11.5 -28v-1092q0 -15 11.5 -29t33.5 -16l106 -8v-88h-518z" />
    <glyph glyph-name="I" unicode="I" horiz-adv-x="676" 
d="M68 0v88l122 8q22 2 32.5 16t10.5 29v1092q0 15 -10.5 28t-32.5 15l-122 8v90h540v-90l-125 -8q-21 -2 -32 -15t-11 -28v-1092q0 -15 11 -29t32 -16l125 -8v-88h-540z" />
    <glyph glyph-name="J" unicode="J" horiz-adv-x="993" 
d="M821 1278q-21 -2 -32 -16t-11 -29v-715q0 -128 -24 -230t-77 -173t-139 -109.5t-210 -38.5q-50 0 -98 8.5t-86 19t-63.5 19.5t-29.5 11v350h123l45 -250q3 -15 12.5 -25.5t22.5 -16.5t28.5 -8.5t30.5 -2.5q70 0 119 27t80 81t45 135t14 189v729q0 15 -10.5 29t-32.5 16
l-129 8v88h541v-88z" />
    <glyph glyph-name="K" unicode="K" horiz-adv-x="1307" 
d="M948 0v63l-381 547h-143v-469q0 -15 11.5 -29t33.5 -16l117 -8v-88h-520v88l108 8q22 2 32.5 16t10.5 29v1092q0 15 -10.5 29t-32.5 16l-108 8v88h520v-88l-117 -8q-22 -2 -33.5 -16t-11.5 -29v-537h74l446 545q7 9 0.5 21t-16.5 14l-105 10v88h434v-88q-36 -3 -65 -7
q-25 -3 -47 -5.5t-27 -3.5l-418 -500l459 -672l148 -10v-88h-359z" />
    <glyph glyph-name="L" unicode="L" horiz-adv-x="1087" 
d="M55 0v88l119 8q22 2 32.5 16t10.5 29v1092q0 15 -10.5 29t-32.5 16l-119 8v88h523v-88l-109 -8q-22 -2 -33.5 -16t-11.5 -29v-1133h430q14 0 28.5 10.5t16.5 24.5l33 246h119v-381h-996z" />
    <glyph glyph-name="M" unicode="M" horiz-adv-x="1794" 
d="M1214 0v88l109 8q22 2 33.5 16t11.5 29v1129l-471 -1270h-102l-455 1251v-1110q0 -15 11.5 -29t33.5 -16l117 -8v-88h-443v88l117 8q22 2 32.5 16t10.5 29v1092q0 15 -10.5 29t-32.5 16l-117 8v88h459v-55l371 -1006l371 1000v61h471v-88l-111 -8q-22 -2 -33.5 -16
t-11.5 -29v-1092q0 -15 11.5 -29t33.5 -16l111 -8v-88h-517z" />
    <glyph glyph-name="N" unicode="N" horiz-adv-x="1477" 
d="M1303 1278q-22 -2 -32.5 -16t-10.5 -29v-1233h-160l-762 1147v-1006q0 -15 10.5 -29t32.5 -16l117 -8v-88h-443v88l117 8q22 2 33.5 16t11.5 29v1092q0 15 -11.5 29t-33.5 16l-121 8v88h406v-51l682 -1030v940q0 15 -11 29t-32 16l-117 8v88h438v-88z" />
    <glyph glyph-name="O" unicode="O" horiz-adv-x="1497" 
d="M1180 684q0 125 -27 235.5t-81 193t-134.5 130t-187.5 47.5q-111 0 -193 -48t-136 -130.5t-80 -192t-26 -231.5q0 -123 26.5 -233.5t80 -193.5t134 -132t189.5 -49q111 0 192.5 49t135.5 131.5t80.5 192t26.5 231.5zM1417 686q0 -149 -48 -280t-135.5 -228.5t-210.5 -154
t-273 -56.5q-151 0 -274.5 54.5t-211.5 151.5t-136 228.5t-48 286.5q0 150 47 281t134 228.5t210.5 153.5t276.5 56q152 0 275.5 -57t211 -155t135 -229t47.5 -280z" />
    <glyph glyph-name="P" unicode="P" horiz-adv-x="1186" 
d="M893 958q0 75 -20 133.5t-63.5 99t-112.5 62t-167 21.5q-14 0 -32 -0.5t-34 -0.5q-18 -1 -38 -1v-645q2 0 15 -1.5t30 -4t36 -4t34 -1.5q81 -1 146 19t110.5 62t70.5 107t25 154zM1106 961q0 -113 -42 -197.5t-114.5 -140t-170 -83t-208.5 -26.5q-20 0 -43.5 1t-45 2.5
t-37 2.5t-19.5 2v-381q0 -15 10.5 -29t32.5 -16l135 -8v-88h-538v88l108 8q22 2 33.5 16t11.5 29v1092q0 15 -11.5 29t-33.5 16l-123 8v88h490q145 0 251.5 -22t176 -71t103.5 -127.5t34 -192.5z" />
    <glyph glyph-name="Q" unicode="Q" horiz-adv-x="1513" 
d="M1192 686q0 121 -26 230.5t-79.5 193t-135.5 133t-195 49.5q-112 0 -194.5 -48t-136.5 -130.5t-80 -192t-26 -231.5q0 -120 27 -230.5t81.5 -195t136.5 -134.5t192 -50q111 0 193 49.5t136 133t80.5 193.5t26.5 230zM1434 686q0 -138 -38.5 -258t-111.5 -213t-178 -154.5
t-238 -83.5q2 -115 71.5 -181t211.5 -66q37 0 70 3t59 6.5t43.5 7t24.5 5.5v-88q-11 -2 -39.5 -8t-69.5 -12t-91 -10.5t-104 -4.5q-108 0 -183 24t-122.5 69t-68.5 108.5t-21 142.5q-123 18 -227 75t-180 148.5t-119 215.5t-43 274q0 100 21.5 192.5t62 172.5t99.5 145.5
t134 112.5t165 72.5t192 25.5q156 0 281.5 -56t214 -153t136.5 -229t48 -283z" />
    <glyph glyph-name="R" unicode="R" horiz-adv-x="1329" 
d="M879 1001q0 66 -20 116.5t-63.5 85.5t-112 53t-165.5 18h-94v-561q2 0 14 -0.5t27.5 -0.5t32 -0.5t28.5 -0.5q85 0 151 14.5t111 48.5t68 89.5t23 137.5zM1329 -6q-7 -1 -20 -5t-31 -9t-39.5 -9t-44.5 -4q-92 0 -149 27.5t-92.5 73t-55.5 103.5t-37 118.5t-37.5 118.5
t-57.5 103.5t-96 73t-153 27.5q-16 0 -32 -0.5t-28.5 -1.5t-21.5 -1.5t-10 -0.5v-467q0 -15 10.5 -29t32.5 -16l108 -8v-88h-509v88l106 8q22 2 33.5 16t11.5 29v1092q0 15 -11.5 29t-33.5 16l-106 8v88h534q117 0 210 -19t158 -62t99.5 -112.5t34.5 -170.5q0 -81 -28 -139
t-74.5 -98t-107.5 -65t-126 -40q83 -20 133 -55.5t79 -80.5t43 -95.5t25 -100t25 -94.5t43.5 -80t80 -55.5t134.5 -20.5v-92z" />
    <glyph glyph-name="S" unicode="S" horiz-adv-x="1067" 
d="M987 385q0 -78 -30.5 -153t-96.5 -134t-169 -95t-247 -36q-84 0 -150.5 12t-114.5 26q-55 17 -99 38v363h129l27 -232q2 -12 12.5 -26t21.5 -19l17 -8.5t41 -16t63.5 -15.5t85.5 -7q65 0 120.5 16.5t95.5 47.5t62.5 76t22.5 102q0 62 -35.5 108.5t-89 83t-116.5 65.5
t-119 56q-63 30 -120.5 62t-101 74t-69 98.5t-25.5 134.5q0 91 36 165t99.5 126.5t150 81t187.5 28.5q58 0 109.5 -7t96 -17.5t83 -22.5t72.5 -23v-319h-117l-31 196q-2 10 -11.5 20t-18.5 15q-2 1 -13 9t-32.5 16t-55 15t-79.5 7q-62 0 -111 -18t-83 -50.5t-52.5 -76.5
t-18.5 -96q0 -47 18.5 -85.5t55 -71t89.5 -60.5t122 -54q93 -35 165.5 -73t122 -85t75.5 -105.5t26 -135.5z" />
    <glyph glyph-name="T" unicode="T" horiz-adv-x="1227" 
d="M1073 1047l-29 192q-3 16 -11.5 25.5t-22.5 9.5h-293v-1133q0 -15 10.5 -29t32.5 -16l131 -8v-88h-555v88l131 8q22 2 32.5 16t10.5 29v1133h-295q-14 0 -23.5 -9.5t-11.5 -25.5l-28 -192h-119v327h1161v-327h-121z" />
    <glyph glyph-name="U" unicode="U" horiz-adv-x="1458" 
d="M1284 1278q-22 -2 -32.5 -16t-10.5 -29v-778q0 -126 -34 -218t-100.5 -152t-165 -89t-226.5 -29q-254 0 -377 123t-123 365v778q0 15 -10.5 29t-32.5 16l-109 8v88h521v-88l-117 -8q-22 -2 -32.5 -16t-10.5 -29v-725q0 -90 14 -164.5t52 -127.5t105.5 -82.5t174.5 -29.5
q106 0 174 31t107 85.5t54 128.5t15 159v725q0 15 -11.5 29t-33.5 16l-117 8v88h445v-88z" />
    <glyph glyph-name="V" unicode="V" horiz-adv-x="1364" 
d="M1225 1264l-459 -1297h-156l-469 1299l-121 20v88h490v-88l-121 -10q-11 -2 -16 -15t-2 -22l360 -1012l346 1008q4 12 -5.5 25.5t-22.5 15.5l-113 10v88h407v-88z" />
    <glyph glyph-name="W" unicode="W" horiz-adv-x="1907" 
d="M1761 1262l-313 -1295h-150l-342 1135l-335 -1135h-148l-334 1295l-119 24v88h469v-88l-122 -12q-14 -2 -19 -14.5t-2 -26.5l244 -924l321 1065h158l330 -1098l227 957q3 14 -5 26.5t-24 14.5l-129 12v88h418v-88z" />
    <glyph glyph-name="X" unicode="X" horiz-adv-x="1298" 
d="M752 0v88l118 12q16 2 25 15t0 28l-272 428l-316 -434q-8 -11 -4 -24t29 -15l123 -10v-88h-435v88l123 25l412 565l-373 584l-135 24v88h514v-88l-104 -10q-25 -2 -29 -15.5t4 -25.5l250 -385l276 379q11 15 2 28t-24 15l-105 14v88h429v-88l-132 -20l-380 -523l403 -630
l127 -25v-88h-526z" />
    <glyph glyph-name="Y" unicode="Y" horiz-adv-x="1282" 
d="M1151 1266l-412 -682v-443q0 -15 11 -29t32 -16l131 -8v-88h-553v88l127 8q22 2 33.5 16t11.5 29v412l-393 709l-119 24v88h486v-88l-103 -10q-24 -3 -27 -16t3 -25l289 -535l317 529q9 15 0 28t-24 15l-115 14v88h416v-88z" />
    <glyph glyph-name="Z" unicode="Z" horiz-adv-x="1178" 
d="M80 0v90l762 1182h-533q-14 0 -22.5 -10t-12.5 -25l-30 -190h-121v327h964v-94l-763 -1176h583q14 0 23 11t12 26l35 238h121v-379h-1018z" />
    <glyph glyph-name="bracketleft" unicode="[" horiz-adv-x="866" 
d="M279 -270v1720h497v-92h-319v-1534h319v-94h-497z" />
    <glyph glyph-name="backslash" unicode="\" horiz-adv-x="1001" 
d="M870 -190l-870 1564h131l870 -1564h-131z" />
    <glyph glyph-name="bracketright" unicode="]" horiz-adv-x="866" 
d="M90 -270v94h322v1534h-322v92h500v-1720h-500z" />
    <glyph glyph-name="asciicircum" unicode="^" horiz-adv-x="670" 
d="M547 1128l-211 203l-213 -203h-123l258 347h154l258 -347h-123z" />
    <glyph glyph-name="underscore" unicode="_" horiz-adv-x="686" 
d="M0 -305v130h686v-130h-686z" />
    <glyph glyph-name="grave" unicode="`" horiz-adv-x="717" 
d="M358 1128l-311 199q-22 14 -34.5 34t-12.5 48q0 16 5 32.5t16 29.5t29 21.5t44 8.5q22 0 37 -3.5t27 -10.5t22 -17.5t21 -23.5l274 -318h-117z" />
    <glyph glyph-name="a" unicode="a" horiz-adv-x="1042" 
d="M678 547q-138 -35 -219 -69t-122.5 -68.5t-53 -70t-11.5 -73.5q0 -32 10.5 -62.5t30 -54.5t48 -38.5t65.5 -14.5q41 0 85.5 15t81.5 33q43 21 85 49v354zM705 0l-27 121q-54 -41 -111 -73q-25 -14 -53 -27t-57.5 -23.5t-60 -16.5t-60.5 -6q-56 0 -104.5 19t-84.5 55
t-56.5 87t-20.5 116q0 38 7.5 72t30.5 66t64.5 61.5t109 58.5t165 57.5t231.5 57.5v88q0 103 -46 152.5t-145 49.5q-54 0 -92 -10t-53 -16v-178h-149q-14 0 -27.5 2t-24.5 8.5t-17.5 18t-6.5 30.5q0 63 38 108.5t99 75.5t137 44t152 14q95 0 157.5 -23t99 -64t51.5 -97
t15 -123v-574q0 -19 12.5 -31t30.5 -14l99 -6v-80h-303z" />
    <glyph glyph-name="b" unicode="b" horiz-adv-x="1137" 
d="M858 500q0 193 -82.5 292t-230.5 99q-17 0 -40 -3t-46.5 -8t-46 -11t-37.5 -11v-760q17 -1 35 -1q15 -1 32.5 -1h32.5q91 0 162 21t120 69t75 125t26 189zM1067 541q0 -116 -34 -214.5t-105.5 -171.5t-183 -114t-265.5 -41h-295v1362h-155v68l264 79h82v-573q18 8 47 21
t66.5 25t80.5 21t88 9q101 0 177.5 -38t128.5 -103t78 -150.5t26 -179.5z" />
    <glyph glyph-name="c" unicode="c" horiz-adv-x="954" 
d="M885 76q-35 -18 -73.5 -36.5t-82 -32.5t-91 -23t-99.5 -9q-108 0 -194.5 38.5t-147.5 107t-94 162.5t-33 204q0 129 40 227t108 164.5t157.5 100t187.5 33.5q67 0 125.5 -13.5t101 -39.5t67 -64t24.5 -88q0 -30 -10.5 -52.5t-27.5 -38t-38.5 -23t-44.5 -7.5
q-34 0 -59 11.5t-44 23.5v178q-21 12 -43.5 19.5t-42.5 7.5q-68 0 -122.5 -31t-92 -86t-57.5 -130.5t-20 -164.5q0 -85 21.5 -160t64 -130.5t106 -87.5t147.5 -32q72 0 136.5 22.5t130.5 66.5v-117z" />
    <glyph glyph-name="d" unicode="d" horiz-adv-x="1155" 
d="M780 883q-13 4 -33.5 9.5t-44 10t-49 7.5t-47.5 3q-76 0 -138 -29.5t-105.5 -83t-67 -129.5t-23.5 -169q0 -84 20 -154.5t58 -122.5t93 -81t126 -29q31 0 60 6.5t56 17t51 23t44 24.5v697zM780 0v109q-35 -27 -72.5 -51.5t-77 -42.5t-81 -29t-86.5 -11
q-103 0 -177.5 44.5t-122.5 115t-70.5 158t-22.5 174.5q0 104 32 202.5t97 174.5t163 122t230 46q24 0 52 -3t54.5 -6.5t48 -8t33.5 -7.5v375h-155v68l264 79h82v-1378q0 -19 12 -31t31 -14l88 -6v-80h-322z" />
    <glyph glyph-name="e" unicode="e" horiz-adv-x="1004" 
d="M729 672q0 51 -12 94.5t-36.5 75.5t-62 50.5t-88.5 18.5t-95 -19.5t-77.5 -56.5t-54 -89.5t-24.5 -118.5h450v45zM934 102q-43 -27 -89.5 -50t-96 -40t-100.5 -27t-103 -10q-93 0 -179 31.5t-151.5 94.5t-105 158.5t-39.5 223.5q0 120 36 217.5t100 167t152 107t193 37.5
q95 0 167 -31.5t120 -87t72 -133t24 -168.5v-27t-2 -30h-664q0 -78 16.5 -156t55.5 -140t105 -100.5t165 -38.5q44 0 87 11.5t84.5 29.5t79.5 40.5t73 45.5v-125z" />
    <glyph glyph-name="f" unicode="f" horiz-adv-x="668" 
d="M797 1386q0 -31 -12.5 -51.5t-29 -33t-32 -18.5t-21.5 -7q-2 2 -16.5 12.5t-35 25t-44 30.5t-43.5 30.5t-34 24t-15 10.5q-22 -12 -43.5 -34t-39 -59t-28 -89.5t-10.5 -124.5v-131h254v-105h-254v-735q0 -19 12.5 -31t30.5 -14l121 -6v-80h-498v80l101 6q18 2 30.5 14
t12.5 31v735h-131v72l131 37q0 51 3.5 91.5t12 76t21.5 69t32 70.5q30 58 69.5 100.5t85 70.5t95 42t99.5 14q43 0 76 -10t55.5 -27t33.5 -39t11 -47z" />
    <glyph glyph-name="g" unicode="g" horiz-adv-x="1075" 
d="M811 -137q0 42 -21 71.5t-55.5 48.5t-78 30.5t-88 19t-86 12t-72.5 10.5q-45 -16 -75 -38.5t-48 -48.5t-25.5 -53t-7.5 -52q0 -37 16 -79t49 -77t83.5 -58.5t119.5 -23.5q73 0 127.5 23.5t90.5 58.5t53.5 77t17.5 79zM696 678q0 48 -12.5 93.5t-36.5 80t-59.5 55.5
t-81.5 21q-43 0 -79 -17t-61.5 -49.5t-40 -79.5t-14.5 -106q0 -51 12.5 -96.5t37 -79.5t61 -54t84.5 -20q46 0 81.5 20t59.5 54t36.5 80t12.5 98zM836 850q23 -37 39 -80.5t16 -103.5q0 -81 -37 -144t-98.5 -105t-141 -61.5t-165.5 -13.5q-12 -20 -16.5 -43t-5 -43
t1.5 -34.5t3 -16.5q46 -5 105 -11t120.5 -17.5t121 -30.5t105.5 -49.5t74.5 -74t28.5 -104.5q0 -73 -41.5 -142.5t-113.5 -124t-169 -87.5t-208 -33q-92 0 -163.5 22t-120.5 61t-75 92.5t-26 115.5q0 45 13 85.5t40 73t67.5 56t96.5 33.5q-6 16 -10 26.5t-6.5 20t-3.5 20
t-1 27.5q0 40 24.5 88.5t78.5 103.5q-51 12 -97 38t-81 65.5t-55.5 91t-20.5 113.5q0 81 30 145.5t84 109.5t129.5 69t167.5 24q36 0 70.5 -6t65 -15.5t56.5 -20.5t46 -20h276v-100h-204z" />
    <glyph glyph-name="h" unicode="h" horiz-adv-x="1176" 
d="M672 0v80l84 6q18 2 31.5 14t13.5 31v528q0 44 -9.5 81t-33 64t-62.5 42.5t-98 15.5q-27 0 -57 -4.5t-59.5 -12.5t-57 -19t-49.5 -23v-672q0 -19 11 -31t30 -14l88 -6v-80h-461v80l98 6q19 2 31 14t12 31v1231h-153v68l262 79h82v-624q28 17 69 39t87.5 41.5t94 33
t87.5 13.5q59 0 109.5 -19t88 -57t59 -96.5t21.5 -137.5v-571q0 -19 13.5 -31t31.5 -14l92 -6v-80h-456z" />
    <glyph glyph-name="i" unicode="i" horiz-adv-x="621" 
d="M70 0v80l100 6q19 2 31 14t12 31v731h-141v72l250 78h81v-881q0 -19 12.5 -31t30.5 -14l105 -6v-80h-481zM446 1325q0 -26 -9.5 -49.5t-26.5 -40.5t-39.5 -27t-48.5 -10t-49.5 10t-40.5 27t-27 40.5t-10 49.5t10 49t27 40t40.5 26.5t49.5 9.5t48.5 -9.5t39.5 -26.5
t26.5 -40t9.5 -49z" />
    <glyph glyph-name="j" unicode="j" horiz-adv-x="598" 
d="M414 131q0 -46 -3 -100.5t-11.5 -109.5t-24 -107t-41.5 -93q-63 -97 -153 -143.5t-187 -46.5q-32 0 -60 6.5t-49.5 20.5t-34 35.5t-12.5 50.5q0 26 8 45.5t20.5 34t28.5 24t31 14.5l199 -137q28 16 47 47.5t30.5 75t16 97t4.5 112.5v909h-145v68l252 78h84v-881z
M436 1325q0 -26 -9.5 -49.5t-26.5 -40.5t-40 -27t-49 -10t-49 10t-40.5 27t-27.5 40.5t-10 49.5t10 49t27.5 40t40.5 26.5t49 9.5t49 -9.5t40 -26.5t26.5 -40t9.5 -49z" />
    <glyph glyph-name="k" unicode="k" horiz-adv-x="1094" 
d="M745 0v80l-256 385h-114v-334q0 -19 12 -31t31 -14l88 -6v-80h-465v80l100 6q19 2 31 14t12 31v1231h-155v68l262 79h84v-985h41l301 340q8 10 2.5 21.5t-19.5 13.5l-84 8v80h398v-80l-131 -14l-271 -289l353 -512l108 -12v-80h-328z" />
    <glyph glyph-name="l" unicode="l" horiz-adv-x="608" 
d="M55 0v80l109 6q14 0 29.5 14.5t15.5 28.5v1233h-156v68l262 79h84v-1380q0 -14 14.5 -28.5t28.5 -14.5l111 -6v-80h-498z" />
    <glyph glyph-name="m" unicode="m" horiz-adv-x="1741" 
d="M1237 0v80l86 6q19 2 31 14t12 31v522q0 48 -9 86.5t-30.5 65.5t-56.5 42t-86 15q-26 0 -54.5 -4.5t-57 -12t-56 -18t-51.5 -22.5v-674q0 -19 12 -31t31 -14l86 -6v-80h-449v80l86 6q19 2 31 14t12 31v535q0 43 -9.5 79.5t-31 62t-56 40t-83.5 14.5q-29 0 -60.5 -5.5
t-60.5 -14t-54.5 -19t-43.5 -20.5v-672q0 -19 12 -31t31 -14l86 -6v-80h-463v80l100 6q19 2 31 14t12 31v711h-141v67l248 78h84v-102q34 21 75.5 43t85.5 41t88.5 31t84.5 12q44 0 80 -12.5t63.5 -33t48 -46t33.5 -50.5q31 19 75 44t93 46.5t98 36.5t90 15q81 0 132 -29.5
t80.5 -75t40.5 -101.5t11 -108v-567q0 -19 12.5 -31t30.5 -14l99 -6v-80h-459z" />
    <glyph glyph-name="n" unicode="n" horiz-adv-x="1161" 
d="M668 0v80l86 6q18 2 30.5 14t12.5 31v533q0 97 -45 147.5t-152 50.5q-59 0 -116 -16.5t-109 -42.5v-672q0 -19 12 -31t31 -14l86 -6v-80h-463v80l100 6q19 2 31 14t12 31v711h-143v67l250 78h84v-102q43 24 87.5 47t88.5 41t85 28.5t77 10.5q134 0 204 -83t70 -233v-565
q0 -19 12.5 -31t30.5 -14l90 -6v-80h-452z" />
    <glyph glyph-name="o" unicode="o" horiz-adv-x="1114" 
d="M831 494q0 84 -16.5 161t-50.5 136t-85 94t-120 35q-71 0 -123 -35t-85.5 -94t-49.5 -136t-16 -161q0 -83 16.5 -160t50.5 -136t85 -94.5t120 -35.5q70 0 122 35t85.5 94t50 136t16.5 161zM1044 492q0 -109 -34.5 -203.5t-98 -164t-154 -109.5t-202.5 -40t-202 39.5
t-153 108.5t-96.5 163.5t-33.5 205.5q0 109 34 204t98 165.5t154.5 110.5t204.5 40t204 -41t152 -111.5t94.5 -165t32.5 -202.5z" />
    <glyph glyph-name="p" unicode="p" horiz-adv-x="1145" 
d="M870 479q0 79 -18.5 149.5t-54.5 124t-89.5 84.5t-123.5 31q-39 0 -76.5 -10t-66.5 -21q-34 -13 -66 -30v-705q24 -9 51 -16q23 -6 53 -11t62 -5q84 0 146 34t102.5 90.5t60.5 130.5t20 154zM1075 508q0 -121 -35.5 -219.5t-102 -168t-163 -107.5t-217.5 -38
q-28 0 -60 2.5t-59 6.5q-32 4 -63 10v-305q0 -19 13 -30t32 -13l121 -13v-79h-498v79l98 13q19 2 31 13t12 30v1153h-141v67l252 78h80v-102q44 35 94 63q43 24 99 44t116 20q79 0 150 -36t124.5 -102t85 -159t31.5 -207z" />
    <glyph glyph-name="q" unicode="q" horiz-adv-x="1124" 
d="M762 895q-28 6 -63.5 14.5t-77.5 8.5q-84 0 -148.5 -30t-108 -84.5t-66 -131t-22.5 -170.5q0 -79 17.5 -152.5t55 -129.5t96 -90t141.5 -34q19 0 42.5 2.5t47.5 6.5t46.5 9.5t39.5 10.5v770zM598 -446v77l121 11q18 2 30.5 13t12.5 30v370q-29 -14 -64 -28t-73.5 -25.5
t-77 -19t-72.5 -7.5q-95 0 -170 39t-127 106t-80 157t-28 192q0 125 40 225.5t116 171t186 108.5t250 38q28 0 65 -2.5t76 -6.5t78 -10.5t71 -13.5v-1294q0 -19 12.5 -29.5t30.5 -13.5l99 -11v-77h-496z" />
    <glyph glyph-name="r" unicode="r" horiz-adv-x="801" 
d="M700 778q-20 23 -46 39.5t-64 16.5q-50 0 -101 -33.5t-104 -93.5v-576q0 -19 12 -31t31 -14l135 -6v-80h-512v78l101 8q18 2 30.5 14t12.5 31v711h-148v67l254 78h84v-182q22 24 53.5 59.5t67.5 68.5t74.5 56t74.5 23q16 0 34 -3t35 -7.5t31.5 -10t24.5 -10.5v-203h-80z
" />
    <glyph glyph-name="s" unicode="s" horiz-adv-x="815" 
d="M745 297q0 -75 -27 -135t-77 -101.5t-123 -63.5t-164 -22q-47 0 -91.5 5.5t-82 14t-66.5 17.5t-44 15v272h104l25 -174q31 -20 76.5 -38.5t105.5 -18.5q44 0 78 13.5t57.5 35.5t36 50.5t12.5 59.5q0 43 -17 73.5t-49 55t-78.5 47.5t-105.5 52q-56 27 -99 53.5t-72.5 57
t-44.5 67t-15 82.5q0 68 24.5 123t71.5 93.5t115.5 59.5t157.5 21q45 0 86 -5t75 -12t60 -15t41 -15v-242h-107l-16 143q-22 17 -65 32t-91 15q-85 0 -125.5 -38.5t-40.5 -98.5q0 -35 11.5 -61t38 -49t70 -47t108.5 -54q54 -24 99 -50t78 -58t51.5 -71t18.5 -89z" />
    <glyph glyph-name="t" unicode="t" horiz-adv-x="696" 
d="M682 43q-38 -19 -83 -34q-38 -13 -88 -23.5t-105 -10.5q-116 0 -168 54t-52 176v680h-131v67l140 66l92 217h90v-248h289v-102h-289v-572q0 -61 10.5 -103.5t31 -69t51 -38.5t71.5 -12q30 0 55.5 5t44.5 12q22 8 41 18v-82z" />
    <glyph glyph-name="u" unicode="u" horiz-adv-x="1165" 
d="M797 0v117q-26 -20 -63.5 -45t-81 -46.5t-91 -36t-92.5 -14.5q-66 0 -118.5 19.5t-89 60t-56 103t-19.5 149.5v555h-143v70l252 80h82v-666q0 -54 10.5 -97t34 -73t61.5 -45.5t92 -15.5q31 0 63 6t61 15.5t54.5 20t43.5 19.5v686h-144v70l250 80h84v-881q0 -19 13.5 -31
t31.5 -14l90 -6v-80h-325z" />
    <glyph glyph-name="v" unicode="v" horiz-adv-x="1083" 
d="M954 895l-358 -895h-133l-330 895l-113 12v80h453v-80l-98 -6q-17 -2 -27 -15t-4 -30l229 -641l252 641q7 16 -2 29.5t-26 15.5l-92 6v80h358v-80z" />
    <glyph glyph-name="w" unicode="w" horiz-adv-x="1604" 
d="M1479 895l-281 -895h-145l-242 766l-270 -766h-146l-262 895l-113 12v80h449v-80l-96 -6q-17 -2 -26.5 -15t-4.5 -30l170 -637l264 768h146l237 -768l189 637q5 16 -3.5 29.5t-25.5 15.5l-94 6v80h358v-80z" />
    <glyph glyph-name="x" unicode="x" horiz-adv-x="1044" 
d="M584 0v80l69 8q14 2 19.5 14t-0.5 23l-176 262l-201 -262q-8 -9 -5 -22t17 -15l103 -8v-80h-390v80l117 16l293 381l-278 412l-121 18v80h450v-80l-71 -10q-14 -2 -20.5 -14t-0.5 -23l162 -229l178 229q8 9 4 22t-18 15l-88 10v80h368v-80l-110 -18l-275 -350l303 -443
l111 -16v-80h-440z" />
    <glyph glyph-name="y" unicode="y" horiz-adv-x="1085" 
d="M958 895l-393 -958q-10 -25 -28 -67t-42.5 -89.5t-54 -93.5t-61.5 -78q-37 -37 -81.5 -57.5t-96.5 -20.5q-36 0 -64 9.5t-47 25.5t-29 37.5t-10 44.5q0 35 15.5 64.5t50.5 58.5l192 -88q25 25 51 65.5t49 85.5t42 89.5t30 78.5l-348 893l-113 12v80h453v-80l-98 -6
q-17 -2 -27 -15t-4 -30l238 -604l243 604q7 16 -2 29.5t-26 15.5l-97 6v80h365v-80z" />
    <glyph glyph-name="z" unicode="z" horiz-adv-x="946" 
d="M70 0v109l542 782h-356q-15 0 -26.5 -14.5t-14.5 -28.5l-20 -152h-105v291h758v-84l-561 -805h413q7 0 14.5 5t14 12t11 15.5t5.5 16.5l21 162h111v-309h-807z" />
    <glyph glyph-name="braceleft" unicode="{" horiz-adv-x="999" 
d="M858 -252q-54 0 -107 4t-100 14.5t-85.5 27.5t-63.5 44q-35 36 -52 78.5t-24.5 89.5t-7.5 96v176q0 41 -5 81t-17 76t-36 59q-18 18 -41 28.5t-51.5 16.5t-64 8t-80.5 2v92q45 0 80.5 2t64 8t51.5 16.5t41 28.5q24 23 36 59t17 76t5 81v175q0 50 7.5 96.5t24.5 89.5
t52 79q25 27 63.5 44t85.5 27.5t100 14.5t107 4v-84q-13 0 -40 -2t-58.5 -8t-61.5 -18.5t-49 -33.5q-21 -23 -31.5 -57t-14.5 -74.5t-3.5 -84.5t0.5 -87q0 -35 -1.5 -73.5t-7.5 -76t-17.5 -71t-32.5 -59.5q-41 -53 -97.5 -78t-119.5 -39q63 -14 119.5 -40t97.5 -79
q21 -26 32.5 -59.5t17.5 -71t7.5 -76t1.5 -73.5q0 -43 -0.5 -87t3.5 -84.5t14.5 -74.5t31.5 -57q19 -21 49 -33.5t61.5 -18.5t58.5 -8t40 -2v-84z" />
    <glyph glyph-name="bar" unicode="|" horiz-adv-x="724" 
d="M300 -528v2158h124v-2158h-124z" />
    <glyph glyph-name="braceright" unicode="}" horiz-adv-x="999" 
d="M877 549q-89 0 -145 -10t-93 -45q-24 -23 -36 -59t-16.5 -76t-4.5 -81v-176q0 -49 -7.5 -96t-25 -89.5t-51.5 -78.5q-26 -27 -64 -44t-85 -27.5t-100 -14.5t-108 -4v84q13 0 40 2t58.5 8t61.5 18.5t49 33.5q22 23 32 57t14 74.5t3.5 84.5t-0.5 87q0 35 1.5 73.5t7.5 76
t18 71t33 59.5q40 53 97 79t120 40q-32 7 -62 16t-58 23t-52.5 33t-44.5 45q-21 26 -33 59.5t-18 71t-7.5 76t-1.5 73.5q0 43 0.5 87t-3.5 84.5t-14 74.5t-32 57q-19 21 -49 33.5t-61.5 18.5t-58.5 8t-40 2v84q55 0 108 -4t100 -14.5t85 -27.5t64 -44q34 -36 51.5 -79
t25 -89.5t7.5 -96.5v-175q0 -41 4.5 -81t16.5 -76t36 -59q37 -35 93 -45t145 -10v-92z" />
    <glyph glyph-name="asciitilde" unicode="~" horiz-adv-x="1706" 
d="M1530 627q-59 -41 -110 -68.5t-97.5 -44.5t-90 -24t-87.5 -7q-73 0 -145 21.5t-145 47.5t-148 47.5t-154 21.5q-78 0 -176 -42.5t-201 -117.5v133q110 78 208 111.5t181 33.5q75 0 150 -21.5t149 -47t145 -47t138 -21.5q73 0 166.5 34.5t216.5 123.5v-133z" />
    <glyph glyph-name="uni00A0" unicode="&#xa0;" horiz-adv-x="600" 
 />
    <glyph glyph-name="exclamdown" unicode="&#xa1;" horiz-adv-x="692" 
d="M469 133q4 -44 -3.5 -74t-24 -49t-41 -27t-54.5 -8t-54.5 8t-41.5 27t-25 49t-4 74l76 879h98zM471 1280q0 -26 -9.5 -49t-26.5 -40t-40 -26.5t-49 -9.5t-49.5 9.5t-40.5 26.5t-27 40t-10 49t10 49t27 40.5t40.5 27.5t49.5 10t49 -10t40 -27.5t26.5 -40.5t9.5 -49z" />
    <glyph glyph-name="copyright" unicode="&#xa9;" horiz-adv-x="1714" 
d="M1180 283q-2 -1 -26.5 -9t-64.5 -17t-91.5 -16.5t-108.5 -7.5q-121 0 -214.5 39.5t-157.5 106t-97 154t-33 184.5q0 106 36 194t102 152t159 99.5t207 35.5q80 0 150.5 -15.5t138.5 -35.5v-244h-93l-30 156q-23 15 -62.5 29t-83.5 14q-65 0 -126 -25.5t-107.5 -74.5
t-74.5 -119.5t-28 -161.5q0 -94 27 -167t71 -123.5t101 -76.5t117 -26q25 0 50 3.5t47 9.5t41 13t32 13l29 174h90v-258zM1556 717q0 97 -25 187t-70 168t-108.5 143t-141.5 111t-167 71.5t-186 25.5t-186.5 -25.5t-167 -71.5t-141.5 -110.5t-109.5 -143t-70.5 -168.5
t-25 -187t25 -186.5t70.5 -168t109 -143t141 -110.5t167 -71.5t185.5 -25.5t185.5 25.5t167 71.5t141.5 110.5t110 143t71 168t25 186.5zM1645 719q0 -109 -28 -210t-79.5 -189t-123.5 -161t-159.5 -124.5t-188.5 -80t-210 -28.5q-108 0 -208 28.5t-187.5 80t-159.5 124
t-123.5 160.5t-79.5 189t-28 209q0 109 28 210t79.5 189t123 160.5t159 124t188.5 80t210 28.5q110 0 211 -29t188.5 -81t159 -124.5t122.5 -160.5t78.5 -188t27.5 -207z" />
    <glyph glyph-name="guillemotleft" unicode="&#xab;" horiz-adv-x="905" 
d="M78 410v163l342 281v-145l-238 -217l238 -220v-141zM481 410v163l342 281v-145l-235 -217l235 -220v-141z" />
    <glyph glyph-name="periodcentered" unicode="&#xb7;" horiz-adv-x="723" 
d="M652 696.5q0 -60.5 -23 -113.5t-62 -92t-92 -62t-113.5 -23t-113.5 23t-92 62t-61.5 92t-22.5 113.5t22.5 113.5t61.5 93t92 62.5t113.5 22.5t113.5 -22.5t92 -62.5t62 -93t23 -113.5z" />
    <glyph glyph-name="guillemotright" unicode="&#xbb;" horiz-adv-x="905" 
d="M82 131v145l235 218l-235 219v141l342 -279v-163zM485 131v145l238 218l-238 219v141l342 -279v-163z" />
    <glyph glyph-name="questiondown" unicode="&#xbf;" horiz-adv-x="995" 
d="M893 176q0 -36 -19.5 -72t-59.5 -64.5t-101.5 -46.5t-145.5 -18q-90 0 -168 26t-135.5 74t-90 115.5t-32.5 151.5q0 97 38.5 169t97 124.5t126.5 88.5t127 62v230h115v-297q-48 -16 -100.5 -46t-96 -74.5t-72 -104.5t-28.5 -136q0 -143 76.5 -211.5t216.5 -68.5l84 207
l16 2q6 1 11.5 1.5t7.5 0.5q28 0 52 -6.5t42 -20.5t28.5 -35.5t10.5 -50.5zM711 1280q0 -26 -10 -49t-27 -40t-39.5 -26.5t-48.5 -9.5q-27 0 -50 10t-40.5 27t-27 40.5t-9.5 49.5t10 49t27 40t40.5 26.5t49.5 9.5t48.5 -10t39.5 -27.5t27 -40.5t10 -49z" />
    <glyph glyph-name="Aacute" unicode="&#xc1;" horiz-adv-x="1380" 
d="M979 1809q0 -28 -13.5 -48t-33.5 -34l-312 -199h-116l272 318q12 13 22 23.5t22 17.5t27.5 10.5t37.5 3.5q27 0 45 -8.5t29 -21.5t15.5 -29.5t4.5 -32.5zM643 1143l-199 -537h400zM883 0v88l118 10q10 0 17 13.5t4 21.5l-141 375h-473l-136 -369q-2 -6 0 -13t7 -13.5
t11 -10.5t11 -4l121 -10v-88h-412v88l119 25l477 1294h154l475 -1264q7 -21 13.5 -28t29.5 -11l92 -16v-88h-487z" />
    <glyph glyph-name="Eacute" unicode="&#xc9;" horiz-adv-x="1194" 
d="M893 1809q0 -28 -13.5 -48t-33.5 -34l-312 -199h-116l272 318q12 13 22 23.5t22 17.5t27.5 10.5t37.5 3.5q27 0 45 -8.5t29 -21.5t15.5 -29.5t4.5 -32.5zM66 0v88l106 8q22 2 33.5 16t11.5 29v1092q0 15 -11.5 29t-33.5 16l-106 8v88h995v-305h-123l-31 168
q-2 15 -12.5 27t-24.5 12h-444v-510h307q14 0 25.5 12t11.5 23l21 141h104v-457h-104l-21 142q0 11 -12 24t-25 13h-307v-564h518q13 0 24 14t13 25l37 203h110v-342h-1062z" />
    <glyph glyph-name="Iacute" unicode="&#xcd;" horiz-adv-x="676" 
d="M635 1809q0 -28 -13.5 -48t-33.5 -34l-312 -199h-116l272 318q12 13 22 23.5t22 17.5t27.5 10.5t37.5 3.5q27 0 45 -8.5t29 -21.5t15.5 -29.5t4.5 -32.5zM68 0v88l122 8q22 2 32.5 16t10.5 29v1092q0 15 -10.5 28t-32.5 15l-122 8v90h540v-90l-125 -8q-21 -2 -32 -15
t-11 -28v-1092q0 -15 11 -29t32 -16l125 -8v-88h-540z" />
    <glyph glyph-name="Ntilde" unicode="&#xd1;" horiz-adv-x="1477" 
d="M1090 1823q-12 -45 -32 -86t-49 -71.5t-68 -49t-89 -18.5q-27 0 -49.5 7.5t-43 18t-40.5 23.5t-42.5 23.5t-49.5 18t-60 7.5q-21 0 -39 -8.5t-32.5 -22t-23.5 -31.5t-11 -36h-82q12 45 31.5 86t49 72t68.5 49t89 18q27 0 49 -7.5t42.5 -18t40 -23.5t42 -23.5t49 -18
t59.5 -7.5q21 0 39.5 8.5t33.5 22t24.5 31.5t11.5 36h82zM1303 1278q-22 -2 -32.5 -16t-10.5 -29v-1233h-160l-762 1147v-1006q0 -15 10.5 -29t32.5 -16l117 -8v-88h-443v88l117 8q22 2 33.5 16t11.5 29v1092q0 15 -11.5 29t-33.5 16l-121 8v88h406v-51l682 -1030v940
q0 15 -11 29t-32 16l-117 8v88h438v-88z" />
    <glyph glyph-name="Oacute" unicode="&#xd3;" horiz-adv-x="1497" 
d="M1044 1809q0 -28 -13.5 -48t-33.5 -34l-312 -199h-116l272 318q12 13 22 23.5t22 17.5t27.5 10.5t37.5 3.5q27 0 45 -8.5t29 -21.5t15.5 -29.5t4.5 -32.5zM1180 684q0 125 -27 235.5t-81 193t-134.5 130t-187.5 47.5q-111 0 -193 -48t-136 -130.5t-80 -192t-26 -231.5
q0 -123 26.5 -233.5t80 -193.5t134 -132t189.5 -49q111 0 192.5 49t135.5 131.5t80.5 192t26.5 231.5zM1417 686q0 -149 -48 -280t-135.5 -228.5t-210.5 -154t-273 -56.5q-151 0 -274.5 54.5t-211.5 151.5t-136 228.5t-48 286.5q0 150 47 281t134 228.5t210.5 153.5
t276.5 56q152 0 275.5 -57t211 -155t135 -229t47.5 -280z" />
    <glyph glyph-name="Uacute" unicode="&#xda;" horiz-adv-x="1458" 
d="M1046 1809q0 -28 -13.5 -48t-33.5 -34l-312 -199h-116l272 318q12 13 22 23.5t22 17.5t27.5 10.5t37.5 3.5q27 0 45 -8.5t29 -21.5t15.5 -29.5t4.5 -32.5zM1284 1278q-22 -2 -32.5 -16t-10.5 -29v-778q0 -126 -34 -218t-100.5 -152t-165 -89t-226.5 -29q-254 0 -377 123
t-123 365v778q0 15 -10.5 29t-32.5 16l-109 8v88h521v-88l-117 -8q-22 -2 -32.5 -16t-10.5 -29v-725q0 -90 14 -164.5t52 -127.5t105.5 -82.5t174.5 -29.5q106 0 174 31t107 85.5t54 128.5t15 159v725q0 15 -11.5 29t-33.5 16l-117 8v88h445v-88z" />
    <glyph glyph-name="Udieresis" unicode="&#xdc;" horiz-adv-x="1458" 
d="M650 1713q0 -23 -9 -44t-24 -37t-35.5 -25t-43.5 -9t-43 9t-35 25t-24 36t-9 43q0 22 9 42.5t24 36.5t35 25.5t43 9.5t43.5 -9t35.5 -24t24 -35.5t9 -43.5zM1074 1713q0 -23 -8.5 -44t-23.5 -37t-35 -25t-43 -9t-43.5 9t-36 25t-24.5 37t-9 44q0 21 9 41.5t25 36t36 25
t43 9.5t43 -9t35 -24.5t23.5 -36t8.5 -42.5zM1284 1278q-22 -2 -32.5 -16t-10.5 -29v-778q0 -126 -34 -218t-100.5 -152t-165 -89t-226.5 -29q-254 0 -377 123t-123 365v778q0 15 -10.5 29t-32.5 16l-109 8v88h521v-88l-117 -8q-22 -2 -32.5 -16t-10.5 -29v-725
q0 -90 14 -164.5t52 -127.5t105.5 -82.5t174.5 -29.5q106 0 174 31t107 85.5t54 128.5t15 159v725q0 15 -11.5 29t-33.5 16l-117 8v88h445v-88z" />
    <glyph glyph-name="aacute" unicode="&#xe1;" horiz-adv-x="1042" 
d="M806 1409q0 -28 -13.5 -48t-33.5 -34l-312 -199h-116l272 318q12 13 22 23.5t22 17.5t27.5 10.5t37.5 3.5q27 0 45 -8.5t29 -21.5t15.5 -29.5t4.5 -32.5zM678 547q-138 -35 -219 -69t-122.5 -68.5t-53 -70t-11.5 -73.5q0 -32 10.5 -62.5t30 -54.5t48 -38.5t65.5 -14.5
q41 0 85.5 15t81.5 33q43 21 85 49v354zM705 0l-27 121q-54 -41 -111 -73q-25 -14 -53 -27t-57.5 -23.5t-60 -16.5t-60.5 -6q-56 0 -104.5 19t-84.5 55t-56.5 87t-20.5 116q0 38 7.5 72t30.5 66t64.5 61.5t109 58.5t165 57.5t231.5 57.5v88q0 103 -46 152.5t-145 49.5
q-54 0 -92 -10t-53 -16v-178h-149q-14 0 -27.5 2t-24.5 8.5t-17.5 18t-6.5 30.5q0 63 38 108.5t99 75.5t137 44t152 14q95 0 157.5 -23t99 -64t51.5 -97t15 -123v-574q0 -19 12.5 -31t30.5 -14l99 -6v-80h-303z" />
    <glyph glyph-name="eacute" unicode="&#xe9;" horiz-adv-x="1004" 
d="M831 1409q0 -28 -13.5 -48t-33.5 -34l-312 -199h-116l272 318q12 13 22 23.5t22 17.5t27.5 10.5t37.5 3.5q27 0 45 -8.5t29 -21.5t15.5 -29.5t4.5 -32.5zM729 672q0 51 -12 94.5t-36.5 75.5t-62 50.5t-88.5 18.5t-95 -19.5t-77.5 -56.5t-54 -89.5t-24.5 -118.5h450v45z
M934 102q-43 -27 -89.5 -50t-96 -40t-100.5 -27t-103 -10q-93 0 -179 31.5t-151.5 94.5t-105 158.5t-39.5 223.5q0 120 36 217.5t100 167t152 107t193 37.5q95 0 167 -31.5t120 -87t72 -133t24 -168.5v-27t-2 -30h-664q0 -78 16.5 -156t55.5 -140t105 -100.5t165 -38.5
q44 0 87 11.5t84.5 29.5t79.5 40.5t73 45.5v-125z" />
    <glyph glyph-name="iacute" unicode="&#xed;" horiz-adv-x="621" 
d="M607 1409q0 -28 -13.5 -48t-33.5 -34l-312 -199h-116l272 318q12 13 22 23.5t22 17.5t27.5 10.5t37.5 3.5q27 0 45 -8.5t29 -21.5t15.5 -29.5t4.5 -32.5zM70 0v80l100 6q19 2 31 14t12 31v731h-141v72l250 78h81v-881q0 -19 12.5 -31t30.5 -14l105 -6v-80h-481z" />
    <glyph glyph-name="ntilde" unicode="&#xf1;" horiz-adv-x="1161" 
d="M936 1423q-12 -45 -32 -86t-49 -71.5t-68 -49t-89 -18.5q-27 0 -49.5 7.5t-43 18t-40.5 23.5t-42.5 23.5t-49.5 18t-60 7.5q-21 0 -39 -8.5t-32.5 -22t-23.5 -31.5t-11 -36h-82q12 45 31.5 86t49 72t68.5 49t89 18q27 0 49 -7.5t42.5 -18t40 -23.5t42 -23.5t49 -18
t59.5 -7.5q21 0 39.5 8.5t33.5 22t24.5 31.5t11.5 36h82zM668 0v80l86 6q18 2 30.5 14t12.5 31v533q0 97 -45 147.5t-152 50.5q-59 0 -116 -16.5t-109 -42.5v-672q0 -19 12 -31t31 -14l86 -6v-80h-463v80l100 6q19 2 31 14t12 31v711h-143v67l250 78h84v-102q43 24 87.5 47
t88.5 41t85 28.5t77 10.5q134 0 204 -83t70 -233v-565q0 -19 12.5 -31t30.5 -14l90 -6v-80h-452z" />
    <glyph glyph-name="oacute" unicode="&#xf3;" horiz-adv-x="1114" 
d="M853 1409q0 -28 -13.5 -48t-33.5 -34l-312 -199h-116l272 318q12 13 22 23.5t22 17.5t27.5 10.5t37.5 3.5q27 0 45 -8.5t29 -21.5t15.5 -29.5t4.5 -32.5zM831 494q0 84 -16.5 161t-50.5 136t-85 94t-120 35q-71 0 -123 -35t-85.5 -94t-49.5 -136t-16 -161
q0 -83 16.5 -160t50.5 -136t85 -94.5t120 -35.5q70 0 122 35t85.5 94t50 136t16.5 161zM1044 492q0 -109 -34.5 -203.5t-98 -164t-154 -109.5t-202.5 -40t-202 39.5t-153 108.5t-96.5 163.5t-33.5 205.5q0 109 34 204t98 165.5t154.5 110.5t204.5 40t204 -41t152 -111.5
t94.5 -165t32.5 -202.5z" />
    <glyph glyph-name="uacute" unicode="&#xfa;" horiz-adv-x="1165" 
d="M878 1409q0 -28 -13.5 -48t-33.5 -34l-312 -199h-116l272 318q12 13 22 23.5t22 17.5t27.5 10.5t37.5 3.5q27 0 45 -8.5t29 -21.5t15.5 -29.5t4.5 -32.5zM797 0v117q-26 -20 -63.5 -45t-81 -46.5t-91 -36t-92.5 -14.5q-66 0 -118.5 19.5t-89 60t-56 103t-19.5 149.5v555
h-143v70l252 80h82v-666q0 -54 10.5 -97t34 -73t61.5 -45.5t92 -15.5q31 0 63 6t61 15.5t54.5 20t43.5 19.5v686h-144v70l250 80h84v-881q0 -19 13.5 -31t31.5 -14l90 -6v-80h-325z" />
    <glyph glyph-name="udieresis" unicode="&#xfc;" horiz-adv-x="1165" 
d="M482 1313q0 -23 -9 -44t-24 -37t-35.5 -25t-43.5 -9t-43 9t-35 25t-24 36t-9 43q0 22 9 42.5t24 36.5t35 25.5t43 9.5t43.5 -9t35.5 -24t24 -35.5t9 -43.5zM906 1313q0 -23 -8.5 -44t-23.5 -37t-35 -25t-43 -9t-43.5 9t-36 25t-24.5 37t-9 44q0 21 9 41.5t25 36t36 25
t43 9.5t43 -9t35 -24.5t23.5 -36t8.5 -42.5zM797 0v117q-26 -20 -63.5 -45t-81 -46.5t-91 -36t-92.5 -14.5q-66 0 -118.5 19.5t-89 60t-56 103t-19.5 149.5v555h-143v70l252 80h82v-666q0 -54 10.5 -97t34 -73t61.5 -45.5t92 -15.5q31 0 63 6t61 15.5t54.5 20t43.5 19.5v686
h-144v70l250 80h84v-881q0 -19 13.5 -31t31.5 -14l90 -6v-80h-325z" />
    <glyph glyph-name="glyph104" unicode="&#x2014;" horiz-adv-x="2048" 
d="M0 422v141h2048v-141h-2048z" />
    <glyph glyph-name="glyph98" unicode="&#x2018;" horiz-adv-x="506" 
d="M381 1438q-25 -28 -54.5 -61t-55 -72t-43 -83.5t-17.5 -95.5q0 -9 1 -20t1 -19h129q8 -11 15 -23q6 -11 11 -26t5 -32q0 -26 -9 -49t-25 -40t-38.5 -26.5t-50.5 -9.5q-79 0 -124.5 50t-45.5 140q0 75 27.5 137t65 110.5t75 82t57.5 51.5z" />
    <glyph glyph-name="glyph99" unicode="&#x2019;" horiz-adv-x="506" 
d="M426 1262q0 -75 -27.5 -137.5t-65 -110.5t-75 -81.5t-57.5 -51.5l-76 16q34 34 65.5 70t55 75t37 80.5t12.5 85.5q0 8 -1 18.5t-1 18.5h-129q-9 10 -16 23q-6 11 -10.5 26t-4.5 33q0 53 32 89t91 36q77 0 123.5 -50.5t46.5 -139.5z" />
    <glyph glyph-name="glyph100" unicode="&#x201c;" horiz-adv-x="928" 
d="M381 1438q-31 -31 -61.5 -65.5t-54.5 -73.5t-39 -82t-15 -91q0 -11 1 -21t1 -18h129q8 -9 15 -21q6 -11 11 -26t5 -34q0 -26 -9 -49t-25 -40t-38.5 -26.5t-50.5 -9.5q-79 0 -124.5 51t-45.5 139q0 75 27.5 137.5t65 110.5t75 81.5t57.5 51.5zM803 1438q-22 -26 -51 -58
t-55.5 -71t-45 -84t-18.5 -97q0 -11 1 -22t1 -19h129q8 -11 15 -23q6 -11 11 -25t5 -31q0 -26 -9 -49.5t-25 -40.5t-39 -27t-50 -10q-81 0 -125.5 53t-44.5 141q0 74 27.5 135.5t65 109.5t75 81t57.5 51z" />
    <glyph glyph-name="glyph101" unicode="&#x201d;" horiz-adv-x="928" 
d="M426 1260q0 -74 -27.5 -136t-65 -110t-75 -81.5t-57.5 -51.5l-76 16q21 25 50.5 57t56 70.5t45 83.5t18.5 96q0 11 -1 22t-1 19h-129q-9 11 -16 24q-6 11 -10.5 26t-4.5 32q0 26 9 49t25.5 40t39.5 26.5t51 9.5q81 0 124.5 -52t43.5 -140zM848 1262q0 -75 -27.5 -137.5
t-65 -110.5t-75 -81.5t-57.5 -51.5l-76 16q31 31 61.5 65.5t55 73t40 81.5t15.5 91q0 11 -2 20t-2 17h-129q-9 10 -16 23q-6 11 -10.5 26t-4.5 35q0 53 33.5 88t89.5 35q78 0 124 -51.5t46 -138.5z" />
    <glyph glyph-name="glyph102" unicode="&#x2022;" horiz-adv-x="1208" 
d="M307 762q0 61 23.5 114.5t63.5 93.5t94.5 63.5t115.5 23.5t114.5 -23.5t93.5 -63.5t63.5 -93.5t23.5 -114.5t-23.5 -114.5t-63.5 -94.5t-94 -64.5t-116 -23.5q-61 0 -115.5 23.5t-94.5 63.5t-62.5 94.5t-22.5 115.5z" />
    <glyph glyph-name="arrowright" unicode="&#x2192;" horiz-adv-x="1716" 
d="M1616 687v-90l-393 -393l-120 120l233 233h-1219v170h1219l-233 233l120 120z" />
    <glyph glyph-name="infinity" unicode="&#x221e;" horiz-adv-x="1607" 
d="M1214 475q98 0 153.5 56.5t55.5 142.5q0 51 -18.5 93t-50 71.5t-73.5 46t-91 16.5t-90 -10t-76 -31.5t-68.5 -55.5t-70.5 -79q39 -49 79 -95t79.5 -80t82.5 -54.5t88 -20.5zM418 444q49 0 89 10.5t75.5 32t69.5 55t71 79.5q-39 51 -78 96t-80 78.5t-84 54t-88 20.5
q-98 0 -153.5 -56t-55.5 -142q0 -51 18.5 -93t50.5 -72t74 -46.5t91 -16.5zM1210 1032q68 0 126.5 -25.5t100.5 -71.5t66.5 -110.5t24.5 -140.5q0 -80 -25.5 -147.5t-71 -116.5t-110 -78t-139.5 -29q-68 0 -125.5 20.5t-107.5 54.5t-94 78t-83 93q-88 -133 -181 -189.5
t-192 -56.5q-68 0 -126 26t-101 72t-66.5 109.5t-23.5 141.5q0 80 24.5 147.5t70.5 116.5t109.5 77.5t141.5 28.5q68 0 125 -20.5t106.5 -54t93.5 -77.5t83 -94q86 135 180 190.5t194 55.5z" />
    <glyph glyph-name="quoteleft" horiz-adv-x="506" 
d="M381 1438q-25 -28 -54.5 -61t-55 -72t-43 -83.5t-17.5 -95.5q0 -9 1 -20t1 -19h129q8 -11 15 -23q6 -11 11 -26t5 -32q0 -26 -9 -49t-25 -40t-38.5 -26.5t-50.5 -9.5q-79 0 -124.5 50t-45.5 140q0 75 27.5 137t65 110.5t75 82t57.5 51.5z" />
    <glyph glyph-name="quoteright" horiz-adv-x="506" 
d="M426 1262q0 -75 -27.5 -137.5t-65 -110.5t-75 -81.5t-57.5 -51.5l-76 16q34 34 65.5 70t55 75t37 80.5t12.5 85.5q0 8 -1 18.5t-1 18.5h-129q-9 10 -16 23q-6 11 -10.5 26t-4.5 33q0 53 32 89t91 36q77 0 123.5 -50.5t46.5 -139.5z" />
    <glyph glyph-name="quotedblleft" horiz-adv-x="928" 
d="M381 1438q-31 -31 -61.5 -65.5t-54.5 -73.5t-39 -82t-15 -91q0 -11 1 -21t1 -18h129q8 -9 15 -21q6 -11 11 -26t5 -34q0 -26 -9 -49t-25 -40t-38.5 -26.5t-50.5 -9.5q-79 0 -124.5 51t-45.5 139q0 75 27.5 137.5t65 110.5t75 81.5t57.5 51.5zM803 1438q-22 -26 -51 -58
t-55.5 -71t-45 -84t-18.5 -97q0 -11 1 -22t1 -19h129q8 -11 15 -23q6 -11 11 -25t5 -31q0 -26 -9 -49.5t-25 -40.5t-39 -27t-50 -10q-81 0 -125.5 53t-44.5 141q0 74 27.5 135.5t65 109.5t75 81t57.5 51z" />
    <glyph glyph-name="quotedblright" horiz-adv-x="928" 
d="M426 1260q0 -74 -27.5 -136t-65 -110t-75 -81.5t-57.5 -51.5l-76 16q21 25 50.5 57t56 70.5t45 83.5t18.5 96q0 11 -1 22t-1 19h-129q-9 11 -16 24q-6 11 -10.5 26t-4.5 32q0 26 9 49t25.5 40t39.5 26.5t51 9.5q81 0 124.5 -52t43.5 -140zM848 1262q0 -75 -27.5 -137.5
t-65 -110.5t-75 -81.5t-57.5 -51.5l-76 16q31 31 61.5 65.5t55 73t40 81.5t15.5 91q0 11 -2 20t-2 17h-129q-9 10 -16 23q-6 11 -10.5 26t-4.5 35q0 53 33.5 88t89.5 35q78 0 124 -51.5t46 -138.5z" />
    <glyph glyph-name="bullet" horiz-adv-x="614" 
d="M543 696q0 -49 -18.5 -92t-50.5 -74.5t-75 -50t-92 -18.5t-92 18.5t-74.5 50t-50 74.5t-18.5 92t18.5 92t50 75t74.5 50.5t92 18.5t92 -18.5t75 -50.5t50.5 -75t18.5 -92z" />
    <glyph glyph-name="emdash" horiz-adv-x="2048" 
d="M0 422v141h2048v-141h-2048z" />
    <glyph glyph-name="arrowright" horiz-adv-x="1716" 
d="M1616 687v-90l-393 -393l-120 120l233 233h-1219v170h1219l-233 233l120 120z" />
  </font>
</defs>
</svg>
