<?xml version="1.0" standalone="no"?>
<!DOCTYPE svg PUBLIC "-//W3C//DTD SVG 1.1//EN" "http://www.w3.org/Graphics/SVG/1.1/DTD/svg11.dtd" >
<svg xmlns="http://www.w3.org/2000/svg" xmlns:xlink="http://www.w3.org/1999/xlink" version="1.1">
<metadata>
Created by FontForge 20161003 at Mon Jun  4 01:14:28 2018
 By www-data
(c) Copyright 1989-1992, Bitstream Inc., Cambridge, MA. You are hereby granted permission under all Bitstream propriety rights to use, copy, modify, sublicense, sell, and redistribute the 4 Bitstream Charter (r) Type 1 outline fonts and the 4 Courier Type 1 outline fonts for any purpose and without restriction; provided, that this notice is left intact on all copies of such fonts and that Bitstream's trademark is acknowledged as shown below on all unmodified copies of the 4 Charter Type 1 fonts: "BITSTREAM CHARTER is a registered trademark of Bitstream Inc."
</metadata>
<defs>
<font id="Chortle2014f-Bold" horiz-adv-x="581" >
  <font-face 
    font-family="Chortle2014f"
    font-weight="700"
    font-stretch="normal"
    units-per-em="1000"
    panose-1="2 0 8 3 7 0 0 2 0 4"
    ascent="762"
    descent="-238"
    x-height="486"
    cap-height="671"
    bbox="-80 -236 1000 929"
    underline-thickness="84"
    underline-position="-194"
    unicode-range="U+0020-2212"
  />
<missing-glyph horiz-adv-x="291" 
 />
    <glyph glyph-name=".notdef" horiz-adv-x="291" 
 />
    <glyph glyph-name=".null" horiz-adv-x="0" 
 />
    <glyph glyph-name="nonmarkingreturn" horiz-adv-x="333" 
 />
    <glyph glyph-name="space" unicode=" " horiz-adv-x="291" 
 />
    <glyph glyph-name="exclam" unicode="!" horiz-adv-x="340" 
d="M170 145q31 0 53 -22.5t22 -54.5t-22 -53.5t-53 -21.5q-30 0 -52.5 21.5t-22.5 53.5t22 54.5t53 22.5zM197 198h-53l-45 355q-2 18 -3.5 31t-1.5 21q0 38 20.5 58.5t55.5 20.5t55.5 -21t20.5 -61q0 -8 -1 -19.5t-3 -27.5z" />
    <glyph glyph-name="quotedbl" unicode="&#x22;" horiz-adv-x="339" 
d="M42 642q-1 5 -1 9.5v9.5q0 53 46 53q47 0 47 -53v-9.5t-1 -9.5l-36 -224h-19zM206 642q-1 5 -1 9.5v9.5q0 26 12.5 39.5t34.5 13.5t34.5 -13.5t12.5 -38.5q0 -5 -0.5 -10t-1.5 -10l-36 -224h-19z" />
    <glyph glyph-name="numbersign" unicode="#" horiz-adv-x="736" 
d="M417 692l-74 -214h133l76 231l63 -18l-74 -213h134v-62h-154l-44 -135h157v-60h-178l-78 -244l-64 16l75 228h-130l-80 -245l-63 18l77 227h-137v60h156l44 135h-151v62h171l78 232zM279 281h129l46 135h-131z" />
    <glyph glyph-name="dollar" unicode="$" 
d="M324 742v-73q42 -1 85.5 -8t90.5 -20v-165h-65l-18 112q-30 18 -93 23v-214q107 -28 158 -74t51 -121q0 -38 -14.5 -71.5t-41.5 -60t-66.5 -44.5t-89.5 -25v-103h-55v103q-121 4 -205 30v173h67l20 -118q26 -14 55.5 -20t62.5 -7v228q-100 26 -148 72t-48 121t52 125
t149 63v74h53zM271 607q-41 -8 -62.5 -33.5t-21.5 -63.5q0 -74 84 -99v196zM322 63q44 7 68.5 36t24.5 71q0 78 -93 103v-210z" />
    <glyph glyph-name="percent" unicode="%" horiz-adv-x="888" 
d="M203 683q76 0 121.5 -55t45.5 -154q0 -100 -45 -155.5t-122 -55.5t-121.5 55.5t-44.5 155.5t45 154.5t121 54.5zM691 671l-418 -671h-70l418 671h70zM200 638q-68 0 -68 -164q0 -165 68 -165q70 0 70 165q0 164 -70 164zM696 407q76 0 121.5 -55.5t45.5 -153.5
q0 -100 -45 -155t-122 -55t-122 55t-45 155t45.5 154.5t121.5 54.5zM694 363q-33 0 -51 -41.5t-18 -123.5q0 -165 69 -165t69 165t-69 165z" />
    <glyph glyph-name="ampersand" unicode="&#x26;" horiz-adv-x="741" 
d="M317 396q37 28 54 57t17 68q0 50 -23 78t-61 28q-35 0 -58 -23.5t-23 -60.5q0 -36 24.5 -70.5t69.5 -76.5zM512 196q41 53 55 113l-12 17l-53 9v46h209v-46l-70 -13q-33 -98 -91 -167l91 -100l83 -7v-48h-210v24l-42 48q-96 -84 -209 -84q-47 0 -85.5 15t-66 41.5
t-43 62.5t-15.5 78q0 127 139 172q-91 73 -91 158q0 36 15 67t42.5 53.5t66.5 35.5t86 13q45 0 80.5 -11.5t60.5 -32.5t38.5 -49t13.5 -61q0 -62 -36.5 -103t-112.5 -66zM233 324q-54 -42 -54 -99q0 -35 10.5 -63.5t30 -49t46.5 -32t60 -11.5q58 0 107 43z" />
    <glyph glyph-name="quotesingle" unicode="'" horiz-adv-x="175" 
d="M42 642q-1 5 -1 9.5v9.5q0 53 46 53q47 0 47 -53v-9.5t-1 -9.5l-36 -224h-19z" />
    <glyph glyph-name="parenleft" unicode="(" horiz-adv-x="428" 
d="M386 667q-94 -13 -135.5 -107t-41.5 -276q0 -179 43 -271.5t134 -103.5v-51q-69 3 -123.5 32t-92.5 83.5t-58.5 132.5t-20.5 179q0 206 77.5 316.5t217.5 116.5v-51z" />
    <glyph glyph-name="parenright" unicode=")" horiz-adv-x="428" 
d="M37 718q137 -7 214.5 -117t77.5 -313q0 -101 -20 -180t-58 -133.5t-92 -84t-122 -32.5v51q94 12 135.5 105.5t41.5 274.5q0 180 -42 273.5t-135 104.5v51v0z" />
    <glyph glyph-name="asterisk" unicode="*" horiz-adv-x="500" 
d="M297 657l-39 -125h-17l-39 125l48 61zM446 571l-43 -64l-130 -1l-5 16l106 76zM371 415l-3 -77l-74 21l-41 125l13 8zM245 483l-41 -124l-74 -21l-2 77l105 78zM232 521l-5 -14l-131 1l-43 63l72 26z" />
    <glyph glyph-name="plus" unicode="+" horiz-adv-x="833" 
d="M458 339h251v-81h-251v-258h-83v258h-251v81h251v257h83v-257z" />
    <glyph glyph-name="comma" unicode="," horiz-adv-x="289" 
d="M31 -129q54 10 82.5 42t28.5 84v10h-62q-21 22 -21 54q0 31 19 49.5t50 18.5q42 0 67 -28t25 -78q0 -38 -13.5 -72t-38 -60t-59.5 -43.5t-78 -22.5v46z" />
    <glyph glyph-name="hyphen" unicode="-" horiz-adv-x="326" 
d="M290 290v-98h-254v98h254z" />
    <glyph glyph-name="period" unicode="." horiz-adv-x="289" 
d="M144 151q33 0 56.5 -23.5t23.5 -56.5t-23.5 -56t-56.5 -23q-32 0 -55 23t-23 56q0 34 23 57t55 23z" />
    <glyph glyph-name="slash" unicode="/" horiz-adv-x="491" 
d="M471 671l-423 -764h-75l423 764h75z" />
    <glyph glyph-name="zero" unicode="0" 
d="M293 683q58 0 105 -23.5t80.5 -68t51.5 -109.5t18 -147q0 -83 -18 -147.5t-51.5 -108.5t-80.5 -67.5t-105 -23.5t-104.5 23t-79.5 67.5t-51 109t-18 147.5t18 147.5t51 109t79.5 68t104.5 23.5zM294 627q-118 0 -118 -288q0 -294 118 -294t118 291t-118 291z" />
    <glyph glyph-name="one" unicode="1" 
d="M390 681v-611l11 -16l94 -4v-50h-347v50l100 6l12 18v492l-9 12l-142 -21v51l216 73h65z" />
    <glyph glyph-name="two" unicode="2" 
d="M453 102l18 88h61v-190h-484v79q79 61 139.5 114t102 101t62.5 93t21 92q0 67 -33 103.5t-90 36.5q-28 0 -58 -12v-129q-33 -18 -63 -18q-33 0 -52.5 19t-19.5 51q0 31 16.5 59t47 49t74 33t97.5 12q50 0 90.5 -14t69 -40t44 -62t15.5 -79q0 -48 -21.5 -93t-64 -91.5
t-106 -95.5t-146.5 -106h280z" />
    <glyph glyph-name="three" unicode="3" 
d="M334 353q92 -7 140.5 -49t48.5 -111q0 -42 -19.5 -79.5t-55.5 -65t-88 -43.5t-116 -16q-46 0 -83.5 10t-63.5 27.5t-40.5 40t-14.5 47.5q0 29 19.5 47t51.5 18q9 0 18.5 -2t20.5 -6l32 -108q39 -15 69 -15q28 0 52.5 10.5t42.5 29.5t28.5 44.5t10.5 54.5q0 55 -37 89
t-101 34q-11 0 -26.5 -1t-35.5 -4v72q8 -1 15 -1h14q71 0 109 32.5t38 90.5q0 53 -34.5 86t-89.5 33q-26 0 -56 -12v-117q-22 -14 -53 -14q-32 0 -52 19.5t-20 49.5q0 27 15.5 52t45 44t70.5 30.5t92 11.5q50 0 90 -13t68.5 -35.5t43.5 -53.5t15 -67q0 -60 -41.5 -100.5
t-122.5 -59.5z" />
    <glyph glyph-name="four" unicode="4" 
d="M453 677v-417h113v-79h-113v-212h-117v212h-311v81l330 415h98zM116 260h220v279z" />
    <glyph glyph-name="five" unicode="5" 
d="M489 671v-104h-312v-169q65 22 121 22q52 0 94 -14t71.5 -40t45.5 -62t16 -80q0 -50 -20.5 -93t-57.5 -74t-89.5 -48.5t-116.5 -17.5q-43 0 -77.5 9.5t-58.5 26t-37 38t-13 46.5q0 26 20.5 44.5t54.5 18.5q8 0 17 -2t20 -5l34 -113q12 -3 23.5 -4t23.5 -1q30 0 56.5 11
t46 30.5t30.5 46t11 57.5q0 67 -46 106t-129 39q-60 0 -121 -14v346h393z" />
    <glyph glyph-name="six" unicode="6" 
d="M469 640l-42 4q-100 -8 -160.5 -69.5t-79.5 -173.5q77 51 159 51q44 0 82 -16.5t65.5 -45.5t43.5 -69t16 -88q0 -54 -19 -99.5t-53 -78t-81 -50.5t-103 -18q-57 0 -103.5 20.5t-79 59.5t-50 95t-17.5 127q0 96 29.5 174t84.5 133.5t133 86.5t175 31v-74zM181 347
q-1 -23 -1.5 -38t-0.5 -22q0 -119 34.5 -178.5t95.5 -59.5q49 0 80.5 43.5t31.5 121.5q0 74 -36 116t-97 42q-58 0 -107 -25z" />
    <glyph glyph-name="seven" unicode="7" 
d="M555 671v-65l-324 -612v-28h-107l322 594h-289l-15 -93h-66v204h479z" />
    <glyph glyph-name="eight" unicode="8" 
d="M347 379q52 49 52 123q0 55 -29 89t-77 34q-42 0 -69 -28.5t-27 -72.5q0 -48 37 -81.5t113 -63.5zM394 356q74 -26 109.5 -68.5t35.5 -105.5q0 -43 -17 -79t-50 -62.5t-80.5 -41t-107.5 -14.5q-56 0 -100.5 15t-76 41t-48.5 61.5t-17 76.5q0 59 34.5 99t100.5 60
q-106 48 -106 156q0 43 16.5 78t46.5 60t73 39t96 14q48 0 87 -13.5t66 -36.5t41.5 -55t14.5 -69q0 -51 -29.5 -90t-88.5 -65zM222 314q-32 -29 -47 -58t-15 -66q0 -32 10 -58t28 -45.5t42 -30t53 -10.5q54 0 86.5 29.5t32.5 76.5q0 28 -11.5 49.5t-35.5 40.5t-59.5 36
t-83.5 36z" />
    <glyph glyph-name="nine" unicode="9" 
d="M405 321q5 23 7.5 47.5t2.5 50.5q0 100 -34 152.5t-91 52.5q-49 0 -82 -43.5t-33 -120.5q0 -78 37.5 -119.5t105.5 -41.5q42 0 87 22zM102 13l45 8q96 44 156 103t88 138q-36 -19 -72 -29t-73 -10q-44 0 -81.5 15.5t-64.5 44t-42.5 68.5t-15.5 88q0 54 18.5 99t53 77.5
t82.5 50t108 17.5q55 0 100 -18.5t76.5 -53t48.5 -83t17 -109.5q0 -77 -27.5 -148.5t-80.5 -133t-131 -110t-178 -80.5z" />
    <glyph glyph-name="colon" unicode=":" horiz-adv-x="340" 
d="M173 488q32 0 55 -23t23 -56t-23 -56t-55 -23t-55 23t-23 56t23 56t55 23zM173 151q32 0 55 -23t23 -57q0 -33 -23 -56t-55 -23t-55 23t-23 56q0 34 23 57t55 23z" />
    <glyph glyph-name="semicolon" unicode=";" horiz-adv-x="340" 
d="M173 488q32 0 55 -23t23 -56t-23 -56t-55 -23t-55 23t-23 56t23 56t55 23zM68 -129q54 10 81 42.5t27 85.5v8h-60q-21 22 -21 54q0 31 18.5 49.5t49.5 18.5q42 0 66.5 -28t24.5 -78q0 -38 -13 -72t-37.5 -60t-59 -43.5t-76.5 -22.5v46z" />
    <glyph glyph-name="less" unicode="&#x3c;" horiz-adv-x="833" 
d="M248 298l456 -186v-89l-575 236v78l575 237v-90z" />
    <glyph glyph-name="equal" unicode="=" horiz-adv-x="833" 
d="M709 358h-585v82h585v-82zM709 157h-585v81h585v-81z" />
    <glyph glyph-name="greater" unicode="&#x3e;" horiz-adv-x="833" 
d="M704 259l-575 -236v89l456 186l-456 186v90l575 -237v-78z" />
    <glyph glyph-name="question" unicode="?" horiz-adv-x="487" 
d="M227 193h-65v135q145 50 145 171q0 59 -34 92.5t-96 33.5h-3l-45 -113q-5 -1 -10 -1h-10q-35 0 -54.5 16.5t-19.5 45.5q0 22 12.5 42t35.5 35t55.5 24t73.5 9q51 0 93 -13.5t71 -37.5t45 -58t16 -75q0 -147 -210 -215v-91zM196 145q32 0 54 -22t22 -56q0 -30 -22.5 -52
t-54.5 -22q-29 0 -51 21.5t-22 55.5q0 31 21.5 53t52.5 22z" />
    <glyph glyph-name="at" unicode="@" horiz-adv-x="917" 
d="M533 442q-5 1 -9.5 1.5t-9.5 0.5q-30 0 -56 -15.5t-45.5 -43.5t-31 -67t-11.5 -85q0 -106 72 -106q45 0 91 63l36 199zM530 134q-75 -77 -140 -77q-54 0 -89 42.5t-35 117.5q0 98 55 171q36 50 86.5 76.5t102.5 26.5q46 0 96 -26l17 23h68q-10 -26 -15.5 -52t-11.5 -52
l-36 -170q-4 -18 -6 -33t-2 -29t9.5 -24t24.5 -10q20 0 41.5 12.5t41.5 38.5q31 39 48 91.5t17 108.5q0 61 -19.5 111.5t-56 86.5t-88 56t-115.5 20q-75 0 -138.5 -25t-114.5 -73q-119 -113 -119 -286q0 -81 25 -147t70 -112.5t108 -72t140 -25.5q129 0 254 73l18 -40
q-78 -45 -153.5 -66.5t-144.5 -21.5q-82 0 -154 28.5t-129 84.5q-110 107 -110 285q0 202 142 333q60 55 138 84.5t168 29.5q75 0 135.5 -23t104 -65t67 -101t23.5 -130q0 -113 -54 -197q-18 -29 -41 -51.5t-48 -38.5t-51 -24t-50 -8q-79 0 -79 80z" />
    <glyph glyph-name="A" unicode="A" horiz-adv-x="651" 
d="M380 678l230 -619l59 -10v-49h-270v49l63 6l7 13l-60 170h-218l-60 -169l10 -13l63 -7v-49h-215v49l60 9l226 620h105zM210 294h176l-89 247z" />
    <glyph glyph-name="B" unicode="B" horiz-adv-x="628" 
d="M329 671q222 0 222 -157q0 -119 -143 -157q88 -2 135 -44.5t47 -116.5q0 -95 -64 -145.5t-188 -50.5h-309v49l59 5l16 16v533l-16 14l-59 5v49h300zM234 373q7 -1 13.5 -1h13.5q78 0 115 31t37 99q0 115 -139 115q-10 0 -19.5 -0.5t-20.5 -1.5v-242zM234 57
q13 -1 25 -1.5t23 -0.5q88 0 128 31.5t40 103.5q0 127 -150 127h-28.5t-37.5 -2v-258z" />
    <glyph glyph-name="C" unicode="C" horiz-adv-x="638" 
d="M601 24q-101 -36 -210 -36q-54 0 -100.5 11.5t-83.5 33.5q-78 47 -122 126t-44 176q0 77 26.5 142t77.5 114q95 92 252 92q101 0 204 -37v-167h-74l-19 107l-14 17q-41 15 -79 15q-51 0 -93 -19t-72 -55.5t-46 -89t-16 -118.5q0 -67 16.5 -120t47.5 -89.5t75.5 -56
t100.5 -19.5q25 0 61 9l15 15l25 121h72v-172v0z" />
    <glyph glyph-name="D" unicode="D" horiz-adv-x="716" 
d="M321 671q87 0 154 -23t113 -66.5t69.5 -105.5t23.5 -141q0 -178 -123 -272q-47 -36 -104.5 -49.5t-132.5 -13.5h-292v49l61 5l16 16v531l-16 16l-61 5v49h292zM238 56h58q236 0 236 280q0 142 -58 210.5t-178 68.5h-58v-559z" />
    <glyph glyph-name="E" unicode="E" horiz-adv-x="596" 
d="M29 49l61 5l16 16v533l-16 14l-61 5v49h504l1 -128h-70l-16 59l-13 13h-199v-238h130l14 14l10 38h59v-165h-59l-10 39l-14 14h-130v-260h211l13 16l18 77h68l-1 -150h-516v49z" />
    <glyph glyph-name="F" unicode="F" horiz-adv-x="552" 
d="M30 49l60 5l16 16v533l-16 14l-64 5v49h502v-137h-69l-15 66l-13 13h-193v-249h134l14 13l11 40h59v-168h-59l-11 41l-14 13h-134v-233l17 -16l70 -5v-49h-295v49z" />
    <glyph glyph-name="G" unicode="G" horiz-adv-x="710" 
d="M690 330v-49l-58 -5l-16 -14v-233q-117 -41 -224 -41q-79 0 -143.5 25.5t-111 72t-72 111.5t-25.5 143q0 77 26 140t73.5 108t115 69.5t150.5 24.5q100 0 211 -33v-170h-73l-19 106l-15 18q-39 16 -83 16q-56 0 -100.5 -19t-76 -55t-48 -87.5t-16.5 -117.5
q0 -136 66 -210.5t182 -74.5q16 0 55 3v204l-16 14l-74 5v49h292z" />
    <glyph glyph-name="H" unicode="H" horiz-adv-x="760" 
d="M313 671v-49l-60 -5l-16 -16v-219h289v219l-15 16l-60 5v49h282v-49l-58 -5l-16 -16v-531l16 -16l58 -5v-49h-282v49l60 5l15 16v252h-289v-252l16 -16l60 -5v-49h-283v49l58 5l16 16v531l-16 16l-58 5v49h283z" />
    <glyph glyph-name="I" unicode="I" horiz-adv-x="354" 
d="M30 49l66 5l16 16v533l-16 14l-66 5v49h299v-49l-67 -5l-16 -14v-533l16 -16l67 -5v-49h-299v49z" />
    <glyph glyph-name="J" unicode="J" horiz-adv-x="465" 
d="M240 617l-70 5v49h294v-49l-61 -5l-16 -14v-341q0 -141 -54.5 -207.5t-177.5 -66.5q-70 0 -143 24v180h73l23 -132l14 -13q4 0 8 -0.5t8 -0.5q68 0 93 52.5t25 162.5v342z" />
    <glyph glyph-name="K" unicode="K" horiz-adv-x="650" 
d="M30 49l61 5l15 16v533l-15 14l-61 5v49h284v-49l-59 -5l-16 -14v-262h28l217 263l-6 13l-56 5v49h225v-49l-70 -7l-190 -227l213 -333l72 -6v-49h-207v35l-168 259h-58v-224l16 -16l59 -5v-49h-284v49z" />
    <glyph glyph-name="L" unicode="L" horiz-adv-x="543" 
d="M27 49l61 5l17 16v533l-14 14l-64 5v49h288v-49l-61 -5l-16 -14v-545h192l13 16l15 122h74v-196h-505v49z" />
    <glyph glyph-name="M" unicode="M" horiz-adv-x="883" 
d="M25 49l64 7l14 18v530l-12 13l-66 6v48h262v-28l156 -459l155 458v29h265v-48l-68 -6l-11 -14v-533l11 -16l68 -5v-49h-277v49l62 5l10 16v537l-208 -607h-72l-203 602v-528l15 -18l62 -7v-49h-227v49z" />
    <glyph glyph-name="N" unicode="N" horiz-adv-x="727" 
d="M26 48l59 8l18 18v529l-14 14l-64 5v49h230v-27l306 -475v428l-18 19l-61 8v47h228v-47l-59 -8l-17 -19v-597h-112l-346 537v-463l16 -18l62 -8v-48h-228v48z" />
    <glyph glyph-name="O" unicode="O" horiz-adv-x="752" 
d="M41 339q0 165 103 260q94 87 234 87q128 0 220 -78q58 -50 88.5 -120t30.5 -155q0 -80 -27 -146t-80 -115q-46 -43 -104 -65.5t-121 -22.5q-78 0 -141.5 25.5t-108.5 72t-69.5 112t-24.5 145.5zM380 622q-42 0 -76.5 -19.5t-60 -56t-39.5 -89.5t-14 -120
q0 -69 14.5 -123.5t39.5 -92t59.5 -57t74.5 -19.5q41 0 76 19.5t60 56.5t39 90t14 119q0 69 -14 123.5t-38.5 92t-59 57t-75.5 19.5z" />
    <glyph glyph-name="P" unicode="P" horiz-adv-x="587" 
d="M29 49l59 5l18 16v533l-15 14l-66 5v49h270q139 0 206 -47t67 -155q0 -104 -67.5 -163t-194.5 -59q-23 0 -68 3v-180l15 -16l71 -5v-49h-295v49zM238 307q10 -1 19 -1.5t17 -0.5q156 0 156 160q0 72 -35.5 110t-104.5 38h-52v-306z" />
    <glyph glyph-name="Q" unicode="Q" horiz-adv-x="752" 
d="M454 -2q2 -60 35 -88t100 -28q42 0 92 12v-51q-96 -21 -165 -21q-104 0 -153.5 40.5t-49.5 128.5v3q-63 10 -113.5 39t-86 73.5t-55 102.5t-19.5 127q0 115 58 207q43 66 116 105t161 39q135 0 224 -77q59 -51 90.5 -121.5t31.5 -156.5q0 -65 -19 -121.5t-53.5 -100
t-84 -73t-109.5 -39.5zM190 339q0 -68 14.5 -121.5t40.5 -91t61.5 -57t76.5 -19.5q40 0 74 19.5t58.5 56t38.5 89.5t14 120t-14.5 120.5t-40 90.5t-60.5 56.5t-77 19.5q-41 0 -75 -19t-58.5 -55.5t-38.5 -89t-14 -119.5z" />
    <glyph glyph-name="R" unicode="R" horiz-adv-x="671" 
d="M335 671q117 0 176 -43.5t59 -127.5q0 -139 -172 -171q36 -8 62 -23t43 -39q23 -33 33.5 -71.5t24.5 -76.5q16 -41 42 -55.5t76 -14.5h13v-48q-26 -4 -51.5 -6t-48.5 -2q-32 0 -59 8.5t-45 22.5q-20 15 -32 31t-20 32.5t-13.5 34t-11.5 35.5q-12 36 -24 62t-29 43t-42 25
t-63 8h-17v-225l16 -16l61 -5v-49h-282v49l59 5l16 16v533l-16 14l-59 5v49h304zM236 353q10 -1 19 -1h17q81 0 119.5 32.5t38.5 101.5q0 62 -37.5 95t-110.5 33h-46v-261z" />
    <glyph glyph-name="S" unicode="S" horiz-adv-x="568" 
d="M59 203h76l16 -120l13 -15q44 -14 88 -14q61 0 95 26.5t34 68.5q0 41 -26.5 70t-80.5 56q-30 15 -64 30.5t-67 43.5q-35 29 -52.5 64.5t-17.5 72.5q0 42 17 78t47.5 62.5t74 41.5t97.5 15q91 0 188 -34v-162h-72l-17 104l-14 14q-14 7 -31.5 10.5t-41.5 3.5
q-55 0 -86.5 -26.5t-31.5 -68.5q0 -35 20.5 -59.5t60.5 -48.5q23 -14 60.5 -28.5t82.5 -43.5q44 -28 67 -66.5t23 -83.5t-18.5 -82.5t-52.5 -64.5t-83.5 -42.5t-110.5 -15.5q-48 0 -97 8t-96 25v181z" />
    <glyph glyph-name="T" unicode="T" horiz-adv-x="603" 
d="M593 671v-177h-69l-17 107l-15 13h-120v-544l17 -16l65 -5v-49h-299v49l65 5l17 16v544h-120l-16 -13l-16 -107h-69v177h577z" />
    <glyph glyph-name="U" unicode="U" horiz-adv-x="705" 
d="M307 671v-49l-62 -5l-14 -14v-350q0 -97 36.5 -141.5t126.5 -44.5q83 0 117.5 47.5t34.5 147.5v337l-15 17l-64 6v49h227v-49l-61 -6l-14 -17v-347q0 -137 -61.5 -200.5t-202.5 -63.5q-75 0 -129 21.5t-85 60.5q-29 38 -36.5 83.5t-7.5 103.5v346l-14 14l-63 5v49h287z
" />
    <glyph glyph-name="V" unicode="V" horiz-adv-x="635" 
d="M254 671v-49l-58 -5l-11 -15l166 -456l161 456l-11 15l-60 5v49h219v-49l-65 -13l-222 -611h-101l-227 612l-66 12v49h275z" />
    <glyph glyph-name="W" unicode="W" horiz-adv-x="946" 
d="M65 608l-63 14v49h262v-48l-62 -7l-8 -14l112 -415l144 484h101l148 -495l105 420l-12 14l-66 12v49h218v-49l-63 -14l-153 -608h-97l-155 512l-152 -512h-97z" />
    <glyph glyph-name="X" unicode="X" horiz-adv-x="637" 
d="M297 671v-48l-60 -5l-8 -13l114 -186l130 183l-9 14l-55 7v48h224v-48l-62 -8l-186 -252l192 -302l67 -13v-48h-290v48l63 8l7 13l-122 200l-142 -198l6 -17l65 -6v-48h-231v48l64 10l195 267l-182 288l-63 10v48h283z" />
    <glyph glyph-name="Y" unicode="Y" horiz-adv-x="610" 
d="M262 671v-49l-56 -5l-9 -12l137 -254l143 245l-8 16l-60 11v48h218v-49l-59 -11l-190 -323v-219l16 -14l68 -5v-50h-300v50l67 5l16 14v195l-192 348l-64 10v49h273z" />
    <glyph glyph-name="Z" unicode="Z" horiz-adv-x="592" 
d="M544 671v-55l-350 -557h256l10 14l18 121h72v-194h-506v55l350 558h-226l-19 -12l-16 -107h-71v177h482z" />
    <glyph glyph-name="bracketleft" unicode="[" horiz-adv-x="443" 
d="M405 708v-56h-154v-729h154v-55h-269v840h269z" />
    <glyph glyph-name="backslash" unicode="\" horiz-adv-x="491" 
d="M68 671l418 -764h-75l-418 764h75z" />
    <glyph glyph-name="bracketright" unicode="]" horiz-adv-x="443" 
d="M312 708v-840h-270v55h154v730h-154v55h270z" />
    <glyph glyph-name="asciicircum" unicode="^" horiz-adv-x="1000" 
d="M797 438h-51l-247 194l-247 -194h-51l246 276h105z" />
    <glyph glyph-name="underscore" unicode="_" horiz-adv-x="500" 
d="M500 -236h-500v84h500v-84z" />
    <glyph glyph-name="grave" unicode="`" horiz-adv-x="500" 
d="M210 742l97 -190h-68l-153 190h124z" />
    <glyph glyph-name="a" unicode="a" horiz-adv-x="544" 
d="M343 57q-48 -32 -89.5 -49t-82.5 -17q-29 0 -53 9.5t-41.5 27t-27 41t-9.5 52.5q0 43 18 71.5t55.5 49.5t95 36.5t135.5 33.5v30q0 54 -22.5 79t-72.5 25q-21 0 -48 -6v-94h-92q-23 0 -34.5 8.5t-11.5 28.5q0 21 15.5 42t44 37.5t68.5 26.5t90 10q52 0 88 -9.5t58 -31
t31.5 -55t9.5 -81.5v-259l13 -14l53 -5v-44h-178zM343 261q-44 -10 -76.5 -20.5t-53.5 -24t-31 -31t-10 -42.5q0 -35 19.5 -55t54.5 -20q38 0 97 30v163z" />
    <glyph glyph-name="b" unicode="b" horiz-adv-x="577" 
d="M205 739v-286q81 45 145 45q43 0 79 -16.5t62 -46.5t41 -71.5t15 -92.5q0 -88 -40 -150.5t-118 -97.5q-56 -24 -170 -24h-27l-111 2v652h-72v39l148 47h48zM205 54q8 -1 16 -1h16q91 0 133.5 46.5t42.5 145.5q0 86 -38 130.5t-107 44.5q-25 0 -63 -8v-358z" />
    <glyph glyph-name="c" unicode="c" horiz-adv-x="476" 
d="M464 45q-48 -26 -94.5 -39.5t-94.5 -13.5q-54 0 -98.5 18t-76 50.5t-48.5 78t-17 99.5q0 57 19 104.5t53.5 82t82 53.5t103.5 19q78 0 121.5 -31.5t43.5 -77.5q0 -29 -20 -48.5t-52 -19.5q-33 0 -59 19v106q-15 3 -25 3q-26 0 -50 -13t-42 -37t-28.5 -58.5t-10.5 -77.5
q0 -91 42 -141t112 -50q65 0 139 45v-71v0z" />
    <glyph glyph-name="d" unicode="d" horiz-adv-x="596" 
d="M316 652v40l149 47h46v-675l14 -16l51 -4v-44h-187v56q-43 -32 -81.5 -48.5t-76.5 -16.5q-42 0 -77.5 17.5t-61.5 49t-40.5 76t-14.5 98.5q0 60 19 109.5t53 85t81.5 54.5t104.5 19q20 0 43.5 -2.5t50.5 -7.5v162h-73zM389 429q-44 15 -74 15q-64 0 -104 -50.5
t-40 -140.5q0 -85 35.5 -131t98.5 -46q18 0 39 5t45 14v334z" />
    <glyph glyph-name="e" unicode="e" horiz-adv-x="524" 
d="M491 50q-101 -59 -207 -59q-56 0 -101.5 18t-78 51t-50 79t-17.5 103t18.5 104.5t51 81.5t78 53t99.5 19q99 0 153.5 -58.5t54.5 -167.5v-19h-327v-3q0 -87 43 -135t118 -48q79 0 165 55v-74zM361 319q0 63 -22.5 94.5t-64.5 31.5q-45 0 -73.5 -35.5t-30.5 -101.5h191v11
z" />
    <glyph glyph-name="f" unicode="f" horiz-adv-x="341" 
d="M31 46l50 5l14 16v347h-65v38l65 30q0 144 102 219q28 21 59 31.5t62 10.5q44 0 69 -20.5t25 -52.5q0 -42 -58 -62l-97 86q-39 -41 -39 -152v-8v-60h134v-60h-134v-348l16 -15l67 -5v-46h-270v46z" />
    <glyph glyph-name="g" unicode="g" horiz-adv-x="551" 
d="M555 468v-57h-108q22 -38 22 -77q0 -36 -14.5 -66.5t-42 -52.5t-67 -34.5t-88.5 -12.5h-14t-15 1q-8 -21 -8 -37q0 -12 3 -27l68 -9q54 -8 95 -18t68.5 -26t41.5 -38t14 -54q0 -35 -19.5 -67t-54.5 -56.5t-85 -39t-110 -14.5q-100 0 -153.5 37.5t-53.5 99.5q0 47 27.5 76
t75.5 34q-13 27 -13 50q0 25 13.5 47.5t41.5 47.5q-61 17 -92.5 56.5t-31.5 93.5q0 38 14.5 70t42.5 54.5t67.5 35t89.5 12.5q67 0 138 -29h148zM267 450q-38 0 -61 -30.5t-23 -85.5q0 -57 23 -89t59 -32q35 0 58 32.5t23 89.5q0 54 -23 84.5t-56 30.5zM198 19
q-42 -35 -42 -83q0 -41 32.5 -70.5t83.5 -29.5q27 0 49 7.5t37.5 20.5t24 30t8.5 36q0 37 -27 51.5t-81 23.5z" />
    <glyph glyph-name="h" unicode="h" horiz-adv-x="597" 
d="M212 739v-302q54 29 95.5 45t75.5 16q137 0 137 -166v-268l13 -15l53 -4v-45h-245v45l43 4l14 15v239q0 56 -21.5 82t-68.5 26q-37 0 -96 -17v-330l15 -15l44 -4v-45h-247v45l51 4l14 15v589h-73v39l148 47h48z" />
    <glyph glyph-name="i" unicode="i" horiz-adv-x="305" 
d="M162 724q34 0 54.5 -21t20.5 -52q0 -34 -21 -55t-53 -21q-30 0 -51.5 20.5t-21.5 53.5q0 32 20.5 53.5t51.5 21.5zM221 496v-432l15 -15l56 -4v-45h-262v45l54 4l14 15v345h-66v40l141 47h48z" />
    <glyph glyph-name="j" unicode="j" horiz-adv-x="297" 
d="M38 409v39l151 48h42v-398q0 -75 -10 -131.5t-44 -100.5q-29 -38 -73.5 -59t-92.5 -21q-42 0 -66.5 20t-24.5 50q0 24 15.5 42.5t42.5 23.5l98 -91q19 26 26 75t7 123v380h-71zM94 649q0 33 20.5 54t54.5 21q31 0 52 -21.5t21 -54.5q0 -31 -22 -52t-53 -21
q-30 0 -51.5 20.5t-21.5 53.5z" />
    <glyph glyph-name="k" unicode="k" horiz-adv-x="553" 
d="M25 44l52 5l14 15v589h-73v39l154 47h42v-480h22l143 167l-7 11l-44 5v44h204v-44l-65 -8l-114 -127l159 -258l59 -5v-44h-192v39l-116 187h-49v-164l13 -14l50 -4v-44h-252v44z" />
    <glyph glyph-name="l" unicode="l" horiz-adv-x="304" 
d="M23 44l58 6l14 14v588h-72v39l151 48h44v-673l15 -16l58 -6v-44h-268v44z" />
    <glyph glyph-name="m" unicode="m" horiz-adv-x="892" 
d="M501 430q60 35 104.5 51.5t72.5 16.5q139 0 139 -166v-268l13 -15l53 -4v-45h-246v45l43 4l14 15v239q0 57 -21 82.5t-71 25.5q-19 0 -40 -5t-46 -14v-328l14 -15l45 -5v-44h-236v45l41 4l14 17v243q0 53 -21 78t-69 25q-36 0 -84 -18v-330l14 -15l42 -4v-45h-245v45
l51 4l14 15v345h-65v40l141 47h48v-59q51 30 91 46.5t73 16.5q76 0 117 -70z" />
    <glyph glyph-name="n" unicode="n" horiz-adv-x="605" 
d="M31 45l51 4l14 15v345h-68v40l144 47h48v-59q54 29 96 45t75 16q136 0 136 -166v-268l13 -15l53 -4v-45h-245v45l43 4l14 15v239q0 56 -21 82t-69 26q-36 0 -95 -17v-330l14 -15l44 -4v-45h-247v45z" />
    <glyph glyph-name="o" unicode="o" horiz-adv-x="577" 
d="M296 499q57 0 103.5 -18t79.5 -51.5t50.5 -81t17.5 -107.5q0 -56 -18.5 -101.5t-52 -78.5t-81.5 -51t-107 -18q-56 0 -102.5 18t-79.5 51t-51 79t-18 103q0 58 18.5 105t52 80.5t81.5 52t107 18.5zM292 446q-54 0 -85 -51t-31 -148q0 -99 31 -150.5t84 -51.5
q56 0 87 50.5t31 148.5q0 99 -31.5 150.5t-85.5 51.5z" />
    <glyph glyph-name="p" unicode="p" horiz-adv-x="591" 
d="M23 -173l54 5l14 15v562h-69v40l146 47h45v-60q45 31 83 47t75 16q40 0 74.5 -17t60 -48.5t40 -75t14.5 -95.5q0 -60 -18.5 -109t-53 -83.5t-83.5 -53t-110 -18.5q-33 0 -82 6v-160l15 -14l63 -4l-1 -46h-267v46zM213 60q32 -7 64 -7q66 0 106.5 51.5t40.5 141.5
q0 81 -35.5 124t-96.5 43q-32 0 -79 -19v-334z" />
    <glyph glyph-name="q" unicode="q" horiz-adv-x="575" 
d="M509 486q-3 -51 -3 -58v-583l15 -14l50 -4v-45h-267v46l64 4l15 14v197q-85 -47 -149 -47q-42 0 -78.5 17t-62.5 47.5t-41 73.5t-15 95q0 128 81.5 199t234.5 71q34 0 72.5 -3.5t83.5 -9.5zM383 439q-14 2 -26 3.5t-24 1.5q-78 0 -119.5 -50t-41.5 -144q0 -85 37.5 -130
t103.5 -45q14 0 32 1.5t38 5.5v357z" />
    <glyph glyph-name="r" unicode="r" horiz-adv-x="421" 
d="M29 45l53 4l14 15v345h-72v40l147 47h48l-4 -102q27 29 56.5 54.5t60.5 47.5q5 1 11 1.5t11 0.5q32 0 66 -17l-13 -138h-52q-22 36 -65 36q-25 0 -71 -28v-287l15 -15l71 -4v-45h-276v45z" />
    <glyph glyph-name="s" unicode="s" horiz-adv-x="447" 
d="M395 342h-60l-10 75l-12 11q-34 16 -66 16q-37 0 -56.5 -16t-19.5 -44q0 -16 6 -27.5t18 -21.5t29.5 -19t39.5 -20q33 -16 60 -30t46 -30t29.5 -35.5t10.5 -46.5q0 -76 -53.5 -120.5t-150.5 -44.5q-74 0 -165 25v148h61l11 -86l10 -11q39 -21 84 -21q41 0 63 19.5
t22 52.5q0 20 -9.5 33.5t-27 24t-42 20.5t-53.5 25q-56 28 -84 57.5t-28 74.5q0 65 51.5 107t144.5 42q76 0 151 -25v-133z" />
    <glyph glyph-name="t" unicode="t" horiz-adv-x="358" 
d="M19 414v38l74 42l52 104h63v-124h148v-60h-148v-249q0 -27 3.5 -45.5t13 -30t25.5 -16.5t41 -5q37 0 65 7v-48q-45 -17 -83.5 -24.5t-69.5 -7.5q-25 0 -45.5 5t-37.5 17q-26 17 -31 42.5t-5 63.5v291h-65z" />
    <glyph glyph-name="u" unicode="u" horiz-adv-x="600" 
d="M212 499v-310q0 -59 21.5 -85.5t73.5 -26.5q19 0 40 4t46 12v319h-65v39l142 48h46v-435l14 -15l52 -4v-45h-189v55q-48 -31 -88 -47.5t-80 -16.5q-137 0 -137 171v250h-65v39l141 48h48z" />
    <glyph glyph-name="v" unicode="v" horiz-adv-x="513" 
d="M248 487v-46l-52 -5l-11 -13l104 -292l114 291l-8 14l-51 5v46h190v-46l-58 -7l-172 -434h-90l-160 435l-60 6v46h254z" />
    <glyph glyph-name="w" unicode="w" horiz-adv-x="799" 
d="M247 487v-46l-49 -7l-11 -14l81 -288l117 355h100l109 -355l88 289l-7 14l-53 6v46h189v-46l-56 -7l-136 -434h-101l-111 359l-119 -359h-100l-129 435l-60 6v46h248z" />
    <glyph glyph-name="x" unicode="x" horiz-adv-x="531" 
d="M255 487v-42l-38 -6l-5 -11l80 -119l87 125l-51 9v44h184v-46l-55 -7l-128 -166l149 -215l53 -9v-44h-234v39l35 9l4 10l-88 134l-94 -138l51 -10v-44h-194v44l59 11l140 179l-139 199l-57 8v46h241z" />
    <glyph glyph-name="y" unicode="y" horiz-adv-x="515" 
d="M250 486v-43l-51 -6l-10 -14l108 -283l109 282l-9 15l-53 6v43h192v-43l-54 -9l-193 -469q-37 -89 -86.5 -136.5t-99.5 -47.5q-37 0 -61.5 22.5t-24.5 51.5q0 22 13.5 40t38.5 31l87 -60q41 33 78 122l-178 446l-60 9v43h254z" />
    <glyph glyph-name="z" unicode="z" horiz-adv-x="495" 
d="M46 62l258 370h-162l-13 -14l-10 -83h-65v151h396v-52l-265 -378h185l15 16l12 92h68v-164h-419v62z" />
    <glyph glyph-name="braceleft" unicode="{" horiz-adv-x="493" 
d="M421 654q-37 -1 -61 -8t-37.5 -22t-19 -38t-5.5 -57v-63q0 -79 -34 -120.5t-111 -54.5q75 -12 110.5 -53.5t35.5 -118.5v-73q0 -36 5 -60t18.5 -39t37 -21.5t61.5 -6.5v-53q-8 0 -15 -0.5t-15 -0.5q-57 0 -97 9.5t-64.5 31.5t-35.5 57.5t-11 87.5v81q0 36 -6 61
t-19.5 40.5t-36 22.5t-55.5 7h-20v57h20q34 0 56.5 7t36 22t19 39.5t5.5 59.5v84q0 48 12 81t38.5 53.5t67.5 29.5t99 9h21v-51z" />
    <glyph glyph-name="bar" unicode="|" horiz-adv-x="500" 
d="M294 -236h-87v1000h87v-1000z" />
    <glyph glyph-name="braceright" unicode="}" horiz-adv-x="493" 
d="M83 705q59 0 100.5 -9t67.5 -29t38 -53.5t12 -81.5v-84q0 -70 24.5 -99.5t89.5 -29.5q5 0 10.5 0.5t11.5 0.5v-57h-20q-33 0 -55.5 -7t-36 -22.5t-19.5 -40.5t-6 -61v-81q0 -52 -11 -87.5t-35.5 -57.5t-64.5 -31.5t-97 -9.5q-8 0 -15 0.5t-15 0.5v53q38 0 62 7t37.5 22
t18.5 39t5 59v73q0 77 35 118.5t110 53.5q-77 13 -110.5 54.5t-33.5 120.5v63q0 34 -5.5 57.5t-19.5 38t-38 21.5t-61 8v51h21z" />
    <glyph glyph-name="asciitilde" unicode="~" horiz-adv-x="833" 
d="M747 293q-49 -34 -95 -51.5t-91 -17.5q-44 0 -93 17q-52 17 -98.5 33t-94.5 16q-44 0 -89 -20t-99 -58v91q103 70 189 70q43 0 77.5 -9t65.5 -20q37 -13 71.5 -24.5t71.5 -11.5q44 0 89 19t96 56v-90v0z" />
    <glyph glyph-name="quoteleft" unicode="&#x2018;" horiz-adv-x="255" 
d="M221 668q-93 -57 -93 -136v-8.5t1 -8.5h60q19 -24 19 -50q0 -31 -19.5 -50.5t-50.5 -19.5q-39 0 -63.5 27.5t-24.5 75.5q0 63 38 115t112 85z" />
    <glyph glyph-name="quoteright" unicode="&#x2019;" horiz-adv-x="255" 
d="M48 425q93 55 93 137v7.5t-1 8.5h-60q-19 24 -19 51q0 31 18.5 50t50.5 19q40 0 64.5 -28t24.5 -76q0 -62 -38 -114.5t-112 -84.5z" />
    <glyph glyph-name="quotedblleft" unicode="&#x201c;" horiz-adv-x="475" 
d="M222 668q-94 -57 -94 -137v-8t1 -8h61q18 -21 18 -51q0 -31 -18.5 -50t-50.5 -19q-39 0 -64 27.5t-25 75.5q0 63 37.5 115t112.5 85zM443 668q-94 -57 -94 -137v-7.5t1 -8.5h60q19 -24 19 -50q0 -31 -19 -50.5t-51 -19.5q-39 0 -63.5 28t-24.5 76q0 63 38 114.5t112 84.5
z" />
    <glyph glyph-name="quotedblright" unicode="&#x201d;" horiz-adv-x="475" 
d="M48 425q94 57 94 137v8t-1 8h-61q-19 20 -19 51t19 50t51 19q40 0 64.5 -28t24.5 -75q0 -63 -38.5 -115.5t-112.5 -84.5zM269 425q93 57 93 136v8.5t-1 8.5h-60q-19 20 -19 50q0 32 18.5 51t50.5 19q40 0 64.5 -28t24.5 -75q0 -63 -38 -115.5t-112 -84.5z" />
    <glyph glyph-name="endash" unicode="&#x2013;" horiz-adv-x="500" 
d="M500 286v-91h-500v91h500z" />
    <glyph glyph-name="emdash" unicode="&#x2014;" horiz-adv-x="1000" 
d="M0 286h1000v-90h-1000v90z" />
    <glyph glyph-name="tilde" unicode="&#x2dc;" horiz-adv-x="500" 
d="M411 722v-16q0 -58 -23.5 -88.5t-63.5 -30.5q-24 0 -45.5 7t-40 16t-33.5 16t-26 7q-37 0 -37 -53v-10h-55v17q0 58 22.5 88.5t64.5 30.5q22 0 42.5 -7.5t38.5 -16t34 -16t29 -7.5q39 0 39 55v8h54z" />
    <glyph glyph-name="exclamdown" unicode="&#xa1;" horiz-adv-x="340" 
d="M170 532q-31 0 -53 22.5t-22 54.5t22 53.5t53 21.5q30 0 52.5 -21.5t22.5 -53.5t-22 -54.5t-53 -22.5zM143 479h52l46 -355q2 -17 3.5 -30.5t1.5 -24.5q0 -35 -21 -56t-56 -21t-55 22t-20 61q0 8 0.5 19.5t2.5 27.5z" />
    <glyph glyph-name="dieresis" unicode="&#xa8;" horiz-adv-x="500" 
d="M147 710q26 0 44.5 -19t18.5 -47q0 -27 -18.5 -46t-44.5 -19t-45 19t-19 46q0 28 19 47t45 19zM353 710q26 0 44.5 -19t18.5 -47q0 -27 -18.5 -46t-44.5 -19q-27 0 -45 19t-18 46q0 28 18.5 47t44.5 19z" />
    <glyph glyph-name="ordfeminine" unicode="&#xaa;" horiz-adv-x="408" 
d="M257 370q-36 -23 -67 -34.5t-62 -11.5q-43 0 -70.5 25t-27.5 66q0 30 13.5 50t41.5 34t71 25.5t102 23.5v21q0 38 -17 55.5t-54 17.5q-19 0 -36 -4v-66h-69q-35 0 -35 26q0 15 11.5 29.5t33 26t52 18.5t67.5 7q39 0 66 -6.5t43.5 -21.5t23.5 -38.5t7 -57.5v-181l10 -10
l40 -3v-31h-134zM257 513q-66 -14 -97 -31t-31 -52q0 -24 15 -38t41 -14q28 0 72 21v114z" />
    <glyph glyph-name="guillemotleft" unicode="&#xab;" horiz-adv-x="449" 
d="M208 342l-108 -102l108 -102v-84l-173 144v84l173 144v-84zM404 342l-108 -102l108 -102v-84l-173 144v84l173 144v-84z" />
    <glyph glyph-name="acute" unicode="&#xb4;" horiz-adv-x="500" 
d="M427 742l-154 -190h-67l97 190h124z" />
    <glyph glyph-name="ordmasculine" unicode="&#xba;" horiz-adv-x="433" 
d="M222 679q87 0 137.5 -48t50.5 -132q0 -39 -13.5 -71t-39 -55.5t-61 -36t-80.5 -12.5q-42 0 -76.5 12.5t-59.5 35.5t-38.5 55.5t-13.5 72.5t13.5 73.5t39 56.5t61.5 36t80 13zM219 642q-40 0 -63.5 -35.5t-23.5 -103.5q0 -69 23.5 -105.5t62.5 -36.5q42 0 65.5 35.5
t23.5 104.5t-24 105t-64 36z" />
    <glyph glyph-name="guillemotright" unicode="&#xbb;" horiz-adv-x="449" 
d="M412 282v-84l-173 -144v84l108 102l-108 102v84zM215 282v-84l-172 -144v84l108 102l-108 102v84z" />
    <glyph glyph-name="questiondown" unicode="&#xbf;" horiz-adv-x="487" 
d="M278 683q31 0 53 -21.5t22 -53.5t-22 -54.5t-53 -22.5q-32 0 -53.5 22.5t-21.5 54.5t21.5 53.5t53.5 21.5zM312 483v-135q-144 -50 -144 -171q0 -60 33.5 -93t95.5 -33h3l45 113q5 1 10 1h10q35 0 54.5 -16.5t19.5 -45.5q0 -23 -12 -43t-35 -35t-56 -24t-74 -9
q-51 0 -92.5 13.5t-71 38.5t-45 58.5t-15.5 74.5q0 147 209 215v91h65z" />
    <glyph glyph-name="Aacute" unicode="&#xc1;" horiz-adv-x="651" 
d="M380 678l230 -619l59 -10v-49h-270v49l63 6l7 13l-60 170h-218l-60 -169l10 -13l63 -7v-49h-215v49l60 9l226 620h105zM210 294h176l-89 247zM503 929l-154 -190h-67l97 190h124z" />
    <glyph glyph-name="Eacute" unicode="&#xc9;" horiz-adv-x="596" 
d="M29 49l61 5l16 16v533l-16 14l-61 5v49h504l1 -128h-70l-16 59l-13 13h-199v-238h130l14 14l10 38h59v-165h-59l-10 39l-14 14h-130v-260h211l13 16l18 77h68l-1 -150h-516v49zM475 929l-154 -190h-67l97 190h124z" />
    <glyph glyph-name="Iacute" unicode="&#xcd;" horiz-adv-x="354" 
d="M30 49l66 5l16 16v533l-16 14l-66 5v49h299v-49l-67 -5l-16 -14v-533l16 -16l67 -5v-49h-299v49zM355 929l-154 -190h-67l97 190h124z" />
    <glyph glyph-name="Ntilde" unicode="&#xd1;" horiz-adv-x="727" 
d="M26 48l59 8l18 18v529l-14 14l-64 5v49h230v-27l306 -475v428l-18 19l-61 8v47h228v-47l-59 -8l-17 -19v-597h-112l-346 537v-463l16 -18l62 -8v-48h-228v48zM525 909v-16q0 -58 -23.5 -88.5t-63.5 -30.5q-24 0 -45.5 7t-40 16t-33.5 16t-26 7q-37 0 -37 -53v-10h-55v17
q0 58 22.5 88.5t64.5 30.5q22 0 42.5 -7.5t38.5 -16t34 -16t29 -7.5q39 0 39 55v8h54z" />
    <glyph glyph-name="Oacute" unicode="&#xd3;" horiz-adv-x="752" 
d="M41 339q0 165 103 260q94 87 234 87q128 0 220 -78q58 -50 88.5 -120t30.5 -155q0 -80 -27 -146t-80 -115q-46 -43 -104 -65.5t-121 -22.5q-78 0 -141.5 25.5t-108.5 72t-69.5 112t-24.5 145.5zM380 622q-42 0 -76.5 -19.5t-60 -56t-39.5 -89.5t-14 -120
q0 -69 14.5 -123.5t39.5 -92t59.5 -57t74.5 -19.5q41 0 76 19.5t60 56.5t39 90t14 119q0 69 -14 123.5t-38.5 92t-59 57t-75.5 19.5zM553 929l-154 -190h-67l97 190h124z" />
    <glyph glyph-name="Uacute" unicode="&#xda;" horiz-adv-x="705" 
d="M307 671v-49l-62 -5l-14 -14v-350q0 -97 36.5 -141.5t126.5 -44.5q83 0 117.5 47.5t34.5 147.5v337l-15 17l-64 6v49h227v-49l-61 -6l-14 -17v-347q0 -137 -61.5 -200.5t-202.5 -63.5q-75 0 -129 21.5t-85 60.5q-29 38 -36.5 83.5t-7.5 103.5v346l-14 14l-63 5v49h287z
M530 929l-154 -190h-67l97 190h124z" />
    <glyph glyph-name="Udieresis" unicode="&#xdc;" horiz-adv-x="705" 
d="M307 671v-49l-62 -5l-14 -14v-350q0 -97 36.5 -141.5t126.5 -44.5q83 0 117.5 47.5t34.5 147.5v337l-15 17l-64 6v49h227v-49l-61 -6l-14 -17v-347q0 -137 -61.5 -200.5t-202.5 -63.5q-75 0 -129 21.5t-85 60.5q-29 38 -36.5 83.5t-7.5 103.5v346l-14 14l-63 5v49h287z
M250 897q26 0 44.5 -19t18.5 -47q0 -27 -18.5 -46t-44.5 -19t-45 19t-19 46q0 28 19 47t45 19zM456 897q26 0 44.5 -19t18.5 -47q0 -27 -18.5 -46t-44.5 -19q-27 0 -45 19t-18 46q0 28 18.5 47t44.5 19z" />
    <glyph glyph-name="aacute" unicode="&#xe1;" horiz-adv-x="544" 
d="M343 57q-48 -32 -89.5 -49t-82.5 -17q-29 0 -53 9.5t-41.5 27t-27 41t-9.5 52.5q0 43 18 71.5t55.5 49.5t95 36.5t135.5 33.5v30q0 54 -22.5 79t-72.5 25q-21 0 -48 -6v-94h-92q-23 0 -34.5 8.5t-11.5 28.5q0 21 15.5 42t44 37.5t68.5 26.5t90 10q52 0 88 -9.5t58 -31
t31.5 -55t9.5 -81.5v-259l13 -14l53 -5v-44h-178zM343 261q-44 -10 -76.5 -20.5t-53.5 -24t-31 -31t-10 -42.5q0 -35 19.5 -55t54.5 -20q38 0 97 30v163zM449 742l-154 -190h-67l97 190h124z" />
    <glyph glyph-name="eacute" unicode="&#xe9;" horiz-adv-x="524" 
d="M491 50q-101 -59 -207 -59q-56 0 -101.5 18t-78 51t-50 79t-17.5 103t18.5 104.5t51 81.5t78 53t99.5 19q99 0 153.5 -58.5t54.5 -167.5v-19h-327v-3q0 -87 43 -135t118 -48q79 0 165 55v-74zM361 319q0 63 -22.5 94.5t-64.5 31.5q-45 0 -73.5 -35.5t-30.5 -101.5h191v11
zM439 742l-154 -190h-67l97 190h124z" />
    <glyph glyph-name="iacute" unicode="&#xed;" horiz-adv-x="305" 
d="M221 496v-432l15 -15l56 -4v-45h-262v45l54 4l14 15v345h-66v40l141 47h48zM331 742l-154 -190h-67l97 190h124z" />
    <glyph glyph-name="ntilde" unicode="&#xf1;" horiz-adv-x="605" 
d="M31 45l51 4l14 15v345h-68v40l144 47h48v-59q54 29 96 45t75 16q136 0 136 -166v-268l13 -15l53 -4v-45h-245v45l43 4l14 15v239q0 56 -21 82t-69 26q-36 0 -95 -17v-330l14 -15l44 -4v-45h-247v45zM464 722v-16q0 -58 -23.5 -88.5t-63.5 -30.5q-24 0 -45.5 7t-40 16
t-33.5 16t-26 7q-37 0 -37 -53v-10h-55v17q0 58 22.5 88.5t64.5 30.5q22 0 42.5 -7.5t38.5 -16t34 -16t29 -7.5q39 0 39 55v8h54z" />
    <glyph glyph-name="oacute" unicode="&#xf3;" horiz-adv-x="577" 
d="M296 499q57 0 103.5 -18t79.5 -51.5t50.5 -81t17.5 -107.5q0 -56 -18.5 -101.5t-52 -78.5t-81.5 -51t-107 -18q-56 0 -102.5 18t-79.5 51t-51 79t-18 103q0 58 18.5 105t52 80.5t81.5 52t107 18.5zM292 446q-54 0 -85 -51t-31 -148q0 -99 31 -150.5t84 -51.5
q56 0 87 50.5t31 148.5q0 99 -31.5 150.5t-85.5 51.5zM466 742l-154 -190h-67l97 190h124z" />
    <glyph glyph-name="uacute" unicode="&#xfa;" horiz-adv-x="600" 
d="M212 499v-310q0 -59 21.5 -85.5t73.5 -26.5q19 0 40 4t46 12v319h-65v39l142 48h46v-435l14 -15l52 -4v-45h-189v55q-48 -31 -88 -47.5t-80 -16.5q-137 0 -137 171v250h-65v39l141 48h48zM477 742l-154 -190h-67l97 190h124z" />
    <glyph glyph-name="udieresis" unicode="&#xfc;" horiz-adv-x="600" 
d="M212 499v-310q0 -59 21.5 -85.5t73.5 -26.5q19 0 40 4t46 12v319h-65v39l142 48h46v-435l14 -15l52 -4v-45h-189v55q-48 -31 -88 -47.5t-80 -16.5q-137 0 -137 171v250h-65v39l141 48h48zM197 710q26 0 44.5 -19t18.5 -47q0 -27 -18.5 -46t-44.5 -19t-45 19t-19 46
q0 28 19 47t45 19zM403 710q26 0 44.5 -19t18.5 -47q0 -27 -18.5 -46t-44.5 -19q-27 0 -45 19t-18 46q0 28 18.5 47t44.5 19z" />
    <glyph glyph-name="dotlessi" unicode="&#x131;" horiz-adv-x="305" 
d="M221 496v-432l15 -15l56 -4v-45h-262v45l54 4l14 15v345h-66v40l141 47h48z" />
    <glyph glyph-name="minus" unicode="&#x2212;" horiz-adv-x="833" 
d="M709 257h-585v83h585v-83z" />
  </font>
</defs>
</svg>
