<?xml version="1.0" standalone="no"?>
<!DOCTYPE svg PUBLIC "-//W3C//DTD SVG 1.1//EN" "http://www.w3.org/Graphics/SVG/1.1/DTD/svg11.dtd" >
<svg xmlns="http://www.w3.org/2000/svg" xmlns:xlink="http://www.w3.org/1999/xlink" version="1.1">
<metadata>
Created by FontForge 20161003 at Mon Jun  4 01:14:12 2018
 By www-data
(c) Copyright 1989-1992, Bitstream Inc., Cambridge, MA. You are hereby granted permission under all Bitstream propriety rights to use, copy, modify, sublicense, sell, and redistribute the 4 Bitstream Charter (r) Type 1 outline fonts and the 4 Courier Type 1 outline fonts for any purpose and without restriction; provided, that this notice is left intact on all copies of such fonts and that Bitstream's trademark is acknowledged as shown below on all unmodified copies of the 4 Charter Type 1 fonts: "BITSTREAM CHARTER is a registered trademark of Bitstream Inc." Infinity symbol from Source Serif Pro copyright 2014 Adobe OFL 1.1 licensed.
</metadata>
<defs>
<font id="Caulixtla008-Italic" horiz-adv-x="1138" >
  <font-face 
    font-family="Caulixtla008"
    font-weight="400"
    font-style="italic"
    font-stretch="normal"
    units-per-em="2048"
    panose-1="2 0 5 3 7 0 0 9 0 4"
    ascent="1561"
    descent="-487"
    x-height="989"
    cap-height="1374"
    bbox="-309 -483 2030 1900"
    underline-thickness="118"
    underline-position="-328"
    slope="11"
    unicode-range="U+0020-221E"
  />
<missing-glyph horiz-adv-x="569" 
 />
    <glyph glyph-name=".notdef" horiz-adv-x="569" 
 />
    <glyph glyph-name=".null" horiz-adv-x="0" 
 />
    <glyph glyph-name="nonmarkingreturn" horiz-adv-x="681" 
 />
    <glyph glyph-name="space" unicode=" " horiz-adv-x="569" 
 />
    <glyph glyph-name="exclam" unicode="!" horiz-adv-x="692" 
d="M332 350h-101l93 783q16 133 45.5 199.5t113.5 66.5q43 0 66.5 -24.5t23.5 -67.5q0 -45 -34 -174zM246 215q49 0 84 -35t35 -82q0 -49 -35 -82.5t-84 -33.5q-47 0 -81 33.5t-34 82.5q0 47 34 82t81 35z" />
    <glyph glyph-name="quotedbl" unicode="&#x22;" horiz-adv-x="677" 
d="M158 864l-64 457q-2 10 -3 20.5t-1 20.5q0 100 84 100q41 0 63.5 -25.5t22.5 -74.5q0 -8 -1 -18.5t-3 -22.5l-66 -457h-32zM487 864l-65 457q-2 10 -3 19.5t-1 19.5q0 51 22.5 76.5t63.5 25.5q84 0 84 -100v-18.5t-2 -22.5l-68 -457h-31z" />
    <glyph glyph-name="numbersign" unicode="#" horiz-adv-x="1525" 
d="M854 1417l-162 -454h316l163 489l97 -35l-160 -454h285v-97h-318l-100 -299h334v-96h-367l-172 -518l-96 33l164 485h-314l-170 -518l-96 33l168 485h-295v96h326l98 299h-324v97h357l170 491zM561 567h305l105 299h-309z" />
    <glyph glyph-name="dollar" unicode="$" 
d="M776 1522l-26 -146q137 -2 303 -61l-64 -299h-92l10 196l-24 35q-74 33 -152 37l-98 -516q166 -59 245.5 -142t79.5 -204q0 -168 -123.5 -281.5t-349.5 -140.5l-41 -209h-86l41 209q-207 8 -356 90l66 313h106l-20 -229l18 -24q109 -53 205 -56l102 533
q-154 70 -226.5 149.5t-72.5 190.5q0 76 32 146.5t90 124.5t139 90t182 42l28 152h84zM645 1282q-121 -23 -187.5 -94.5t-66.5 -167.5q0 -74 39 -125t123 -86zM508 96q133 25 201.5 97.5t68.5 177.5q0 80 -42 131t-134 86z" />
    <glyph glyph-name="percent" unicode="%" horiz-adv-x="1744" 
d="M506 1399q113 0 177.5 -77t64.5 -212q0 -104 -28 -203.5t-77 -179.5q-115 -186 -301 -186q-113 0 -176.5 74.5t-63.5 211.5q0 104 28 206t75 179q57 92 134 139.5t167 47.5zM1503 1374l-1141 -1374h-124l1140 1374h125zM489 1325q-100 0 -167 -149q-37 -82 -58.5 -182.5
t-21.5 -198.5q0 -180 114 -181q100 0 166 148q35 78 57.5 179t22.5 202q0 182 -113 182zM1401 834q113 0 177 -76t64 -211q0 -104 -27.5 -203.5t-76.5 -179.5q-117 -188 -301 -189q-113 0 -176.5 76t-63.5 213q0 104 28 204.5t75 178.5q57 92 134 139.5t167 47.5zM1384 762
q-100 0 -167 -150q-37 -82 -58.5 -182t-21.5 -199q0 -182 114 -182q98 0 166 150q35 78 57.5 179t22.5 202q0 182 -113 182z" />
    <glyph glyph-name="ampersand" unicode="&#x26;" horiz-adv-x="1441" 
d="M1362 651l-145 -18q-131 -248 -259 -371q63 -94 137 -136t175 -42h22v-82l-145 -8q-18 -2 -30.5 -2h-20.5q-39 0 -71 9t-60.5 28.5t-58 50.5t-64.5 72q-104 -88 -219 -131.5t-232 -43.5q-78 0 -142.5 25t-110.5 70t-71.5 106.5t-25.5 132.5q0 260 352 439
q-55 78 -83.5 144.5t-28.5 127.5q0 76 31.5 145.5t90 120.5t139.5 82t179 31q139 0 219 -75t80 -193q0 -129 -105.5 -230.5t-312.5 -165.5l305 -405q41 37 85 103.5t93 162.5l-24 33l-100 20v86h401v-86zM440 686q-111 -68 -163 -141.5t-52 -171.5q0 -59 20.5 -109.5
t55.5 -87.5t84 -57.5t109 -20.5q154 0 299 117zM555 793q297 106 297 325q0 88 -48 139.5t-126 51.5q-53 0 -97 -18.5t-77 -50.5t-51.5 -75t-18.5 -92q0 -66 31 -134t90 -146z" />
    <glyph glyph-name="quotesingle" unicode="'" horiz-adv-x="348" 
d="M158 864l-66 457q-2 10 -2 19.5v19.5q0 102 84 102q41 0 63.5 -25.5t22.5 -74.5q0 -8 -1 -18.5t-3 -22.5l-66 -457h-32z" />
    <glyph glyph-name="parenleft" unicode="(" horiz-adv-x="858" 
d="M924 1384q-82 -12 -156 -53t-133 -106q-68 -76 -115 -163t-78 -192q-59 -201 -85.5 -356.5t-26.5 -265.5q0 -203 73.5 -316.5t214.5 -136.5l-16 -86q-98 8 -179 52t-139.5 119t-90 176.5t-31.5 224.5q0 133 29.5 286.5t91.5 327.5q82 225 264 393q88 82 188.5 128
t204.5 54z" />
    <glyph glyph-name="parenright" unicode=")" horiz-adv-x="858" 
d="M203 1470q98 -8 178 -52t138.5 -117.5t90 -173t31.5 -216.5q0 -328 -101.5 -591t-281.5 -429q-92 -84 -191.5 -130t-201.5 -52l16 86q82 10 156 52t133 108q72 80 122 178t83 217q53 199 75.5 347.5t22.5 246.5q0 195 -74.5 307.5t-212.5 132.5l17 86v0z" />
    <glyph glyph-name="asterisk" unicode="*" horiz-adv-x="1024" 
d="M719 1346l-115 -256h-29l-18 256l105 124zM1008 1169l-115 -114l-266 -17l-4 27l249 141zM776 840l-20 -148l-127 53l-49 246l24 15zM559 991l-143 -248l-148 -51l35 148l238 166zM547 1063l-12 -25l-263 17l-69 114l149 37z" />
    <glyph glyph-name="plus" unicode="+" horiz-adv-x="1705" 
d="M913 1221v-551h539v-117h-539v-553h-118v553h-541v117h541v551h118z" />
    <glyph glyph-name="comma" unicode="," horiz-adv-x="569" 
d="M-104 -279q246 47 280 293h-131q-18 27 -18 60q0 63 42 103t103 40q63 0 97 -37t34 -102q0 -72 -30.5 -142.5t-86 -129t-132.5 -99.5t-171 -53z" />
    <glyph glyph-name="hyphen" unicode="-" horiz-adv-x="653" 
d="M532 561l-26 -137h-459l27 137h458z" />
    <glyph glyph-name="period" unicode="." horiz-adv-x="569" 
d="M174 233q51 0 87 -35.5t36 -86.5t-36 -86t-87 -35q-49 0 -85 34.5t-36 86.5q0 51 35 86.5t86 35.5z" />
    <glyph glyph-name="slash" unicode="/" horiz-adv-x="985" 
d="M1075 1374l-1177 -1564h-125l1177 1564h125z" />
    <glyph glyph-name="zero" unicode="0" 
d="M705 1399q174 0 275 -121t101 -340q0 -180 -46 -348t-126 -303q-92 -154 -213 -233t-264 -79q-174 0 -275.5 122t-101.5 339q0 178 46 348t126 306q92 154 213.5 231.5t264.5 77.5zM686 1303q-94 0 -168 -64.5t-135 -194.5q-29 -61 -56.5 -150t-50.5 -206
q-33 -164 -32 -287q0 -328 211 -327q176 0 299 256q59 127 106 358q16 86 24.5 156.5t8.5 130.5q0 328 -207 328z" />
    <glyph glyph-name="one" unicode="1" 
d="M827 1399l-243 -1272l18 -31l178 -10v-86h-612v88l213 12l33 35l204 1063l-20 21l-297 -39v84l477 135h49z" />
    <glyph glyph-name="two" unicode="2" 
d="M805 162l69 174h93l-64 -336h-948l25 129q211 147 374.5 270t276 233.5t170 216t57.5 222.5q0 106 -57.5 164.5t-165.5 58.5q-92 0 -193 -49l-41 -219q-49 -31 -98 -31q-45 0 -70.5 23.5t-25.5 58.5q0 41 21.5 86t66.5 86q74 68 181.5 109t223.5 41q174 0 266.5 -81
t92.5 -226q0 -111 -56.5 -215.5t-167 -215t-273.5 -232.5t-374 -267h617z" />
    <glyph glyph-name="three" unicode="3" 
d="M653 731q152 -6 233 -77.5t81 -188.5q0 -104 -57.5 -203.5t-161.5 -171.5q-80 -53 -178.5 -83t-202.5 -30q-82 0 -148.5 17.5t-115 47.5t-75 70t-26.5 87q0 53 29.5 83.5t83.5 30.5q35 0 71 -14l31 -176q80 -49 172 -49q82 0 152.5 28.5t122 77.5t80 115.5t28.5 144.5
q0 104 -64.5 164t-185.5 60q-29 0 -58.5 -2.5t-64.5 -6.5l17 115q14 -2 26.5 -2h24.5q88 0 158.5 24.5t121 67.5t77 100.5t26.5 122.5q0 102 -61.5 161t-167.5 59q-98 0 -195 -66l-29 -197q-31 -10 -54.5 -17t-41.5 -7q-39 0 -64.5 26.5t-25.5 69.5q0 51 37 102.5
t101.5 92.5t153.5 66.5t195 25.5q166 0 258.5 -76t92.5 -205q0 -131 -101.5 -235.5t-294.5 -151.5z" />
    <glyph glyph-name="four" unicode="4" 
d="M1008 1386l-164 -856h229l-26 -133h-230l-90 -473h-158l90 473h-659l25 133l862 856h121zM178 530h508l121 633z" />
    <glyph glyph-name="five" unicode="5" 
d="M1063 1374l-29 -155h-596l-84 -418q129 35 230 35q180 0 276 -88.5t96 -241.5q0 -102 -50 -203.5t-144 -179.5q-180 -150 -430 -150q-160 0 -243 53.5t-83 135.5q0 51 34 85t85 34q23 0 51 -7l53 -174q68 -31 150 -30q80 0 151.5 30.5t126 84t85 124t30.5 148.5
q0 264 -364 264q-29 0 -197 -12l135 665h717z" />
    <glyph glyph-name="six" unicode="6" 
d="M1004 1362q-262 -27 -443.5 -176.5t-245.5 -392.5q90 66 178.5 97.5t174.5 31.5q162 0 260 -99.5t98 -273.5q0 -117 -43 -220.5t-117.5 -182t-176 -125t-220.5 -46.5q-182 0 -292.5 123t-110.5 346q0 221 89 421t261 354q223 201 583 247zM289 688q-39 -119 -39 -262
q0 -172 63.5 -264t175.5 -92q72 0 135.5 32.5t111.5 90t77 137.5t29 176q0 293 -262 293q-158 0 -291 -111z" />
    <glyph glyph-name="seven" unicode="7" 
d="M1221 1374l-17 -82l-934 -1323l-8 -45h-170l916 1295h-633l-68 -187h-96l65 342h945z" />
    <glyph glyph-name="eight" unicode="8" 
d="M666 756q111 51 171 142t60 198q0 100 -57.5 157.5t-161.5 57.5q-59 0 -111.5 -21.5t-92.5 -60.5t-63.5 -91.5t-23.5 -115.5q0 -86 69 -146.5t210 -119.5zM748 723q68 -33 115.5 -64.5t80.5 -67.5t48.5 -78t15.5 -93q0 -92 -41 -174t-114 -144.5t-174 -99.5t-222 -37
q-203 0 -311.5 90t-108.5 234q0 129 87 239.5t261 188.5q-88 45 -129 106.5t-41 153.5q0 88 37 166t103.5 135t156.5 90t197 33q164 0 257 -80t93 -213q0 -127 -78.5 -226.5t-232.5 -158.5zM455 672q-125 -72 -185.5 -153t-60.5 -193q0 -119 76.5 -189.5t206.5 -70.5
q72 0 133 23.5t105 65.5t68.5 97t24.5 117q0 55 -22.5 93t-68.5 70.5t-115.5 64.5t-161.5 75z" />
    <glyph glyph-name="nine" unicode="9" 
d="M846 705q18 78 28.5 146.5t10.5 129.5q0 162 -66.5 245t-187.5 83q-68 0 -131.5 -34t-111.5 -93.5t-76.5 -139t-28.5 -172.5q0 -137 70.5 -216t191.5 -79q156 1 301 130zM57 -29q262 96 444.5 241.5t299.5 360.5q-203 -113 -350 -112q-78 0 -143.5 26.5t-113 74.5
t-74 115.5t-26.5 151.5q0 123 53.5 239t151.5 198q162 133 365 133q197 0 301 -108.5t104 -313.5q0 -176 -63.5 -340t-187.5 -305.5t-306 -255t-418 -191.5z" />
    <glyph glyph-name="colon" unicode=":" horiz-adv-x="653" 
d="M358 977q51 0 86 -35t35 -86t-34.5 -87t-86.5 -36q-49 0 -84.5 36t-35.5 87t34.5 86t85.5 35zM217 233q51 0 87 -35.5t36 -86.5t-36 -86t-87 -35q-49 0 -85 34.5t-36 86.5q0 51 35 86.5t86 35.5z" />
    <glyph glyph-name="semicolon" unicode=";" horiz-adv-x="653" 
d="M358 977q51 0 86 -35t35 -86t-34.5 -87t-86.5 -36q-49 0 -84.5 36t-35.5 87t34.5 86t85.5 35zM-53 -279q246 47 280 293h-131q-18 27 -18 60q0 63 42 103t103 40q63 0 97 -37t34 -102q0 -72 -30.5 -142.5t-86 -129t-132 -99.5t-171.5 -53z" />
    <glyph glyph-name="less" unicode="&#x3c;" horiz-adv-x="1705" 
d="M1442 1018l-1000 -408l1000 -405v-129l-1178 483v103l1178 483v-127z" />
    <glyph glyph-name="equal" unicode="=" horiz-adv-x="1705" 
d="M1452 860v-117h-1198v117h1198zM1452 477v-117h-1198v117h1198z" />
    <glyph glyph-name="greater" unicode="&#x3e;" horiz-adv-x="1705" 
d="M1442 662v-103l-1178 -483v129l1000 405l-1000 408v127z" />
    <glyph glyph-name="question" unicode="?" horiz-adv-x="995" 
d="M399 350h-106l57 299q184 66 278.5 179.5t94.5 261.5q0 215 -242 215h-6l-123 -203q-10 -2 -18 -2h-19q-51 0 -77.5 21.5t-26.5 58.5q0 43 24.5 83t69.5 70.5t107.5 48t138.5 17.5q174 0 267 -79t93 -214q0 -334 -465 -516zM309 215q49 0 83 -35t34 -82q0 -49 -34 -82.5
t-83 -33.5q-47 0 -81.5 33.5t-34.5 82.5q0 47 34.5 82t81.5 35z" />
    <glyph glyph-name="at" unicode="@" horiz-adv-x="1929" 
d="M1133 922q-10 2 -22.5 3t-23.5 1q-72 0 -133 -34t-107 -94.5t-72.5 -144.5t-26.5 -184q0 -113 44 -170t126 -57q106 0 215 135l84 430zM1128 289q-84 -86 -156.5 -130t-144.5 -44q-111 0 -182.5 89t-71.5 240q0 98 30 186.5t85 164.5q76 102 180.5 157.5t214.5 55.5
q96 0 201 -56l37 47h111q-20 -51 -31.5 -105t-24.5 -114l-80 -352q-10 -41 -13 -68.5t-3 -44.5q0 -41 23.5 -64.5t62.5 -23.5q41 0 88 27t92 80q68 80 106 194.5t38 243.5q0 119 -42 221.5t-118 177t-183.5 116.5t-236.5 42q-334 0 -555 -205q-254 -236 -254 -596
q0 -168 52.5 -305t148.5 -233t231 -149.5t299 -53.5q137 0 273.5 37t265.5 113l28 -70q-164 -92 -320.5 -136t-301.5 -44q-174 0 -323.5 58t-268.5 173q-229 219 -229 586q0 408 297 680q123 111 286.5 172t341.5 61q162 0 293 -47t221.5 -133t139.5 -206t49 -267
q0 -227 -115 -404q-78 -119 -184.5 -182t-204.5 -63q-152 0 -152 155v19z" />
    <glyph glyph-name="A" unicode="A" horiz-adv-x="1241" 
d="M842 1386l219 -1261l35 -37l100 -10v-78h-448v78l120 10l15 29l-64 391h-497l-220 -391l17 -29l125 -10v-78h-406v78l113 12l756 1296h135zM373 596h428l-94 590z" />
    <glyph glyph-name="B" unicode="B" horiz-adv-x="1204" 
d="M698 1374q209 0 311.5 -60.5t102.5 -195.5q0 -147 -91 -245.5t-271 -143.5q324 -16 323 -272q0 -457 -618 -457h-512v78l129 12l34 29l218 1136l-21 31l-131 10v78h526zM408 756q68 -6 104 -6q188 0 292.5 95t104.5 253q0 102 -71.5 149t-219.5 47q-39 0 -112 -6zM281 90
q70 -6 135 -6q457 0 456 358q0 121 -78.5 174.5t-244.5 53.5q-29 0 -68 -3t-90 -8z" />
    <glyph glyph-name="C" unicode="C" horiz-adv-x="1236" 
d="M1217 1014h-87v196l-16 39q-100 53 -217 54q-102 0 -194.5 -36t-167.5 -104q-121 -109 -188.5 -275.5t-67.5 -369.5q0 -213 110.5 -329.5t315.5 -116.5q84 0 176 28l39 35l90 236h88l-56 -324q-215 -72 -407 -72q-127 0 -228.5 40t-173 114t-110.5 179.5t-39 234.5
q0 201 83 378t234 302q106 86 233.5 131t268.5 45q174 0 371 -70z" />
    <glyph glyph-name="D" unicode="D" horiz-adv-x="1374" 
d="M637 1374q317 0 478 -133t161 -389q0 -180 -65.5 -342t-188.5 -283t-279.5 -174t-367.5 -53h-432v78l131 12l32 29l220 1136l-21 31l-133 10v78h465zM287 96h112q168 0 295 55.5t207 159.5q78 104 127 253t49 308q0 209 -112.5 308.5t-343.5 99.5h-111z" />
    <glyph glyph-name="E" unicode="E" horiz-adv-x="1118" 
d="M1133 1374l-58 -299h-98v174l-23 31h-440l-100 -518h311l37 29l45 149h88l-86 -451h-84l8 148l-24 29h-314l-110 -572h522l37 33l69 207h95l-66 -334h-991v78l129 12l35 29l219 1136l-23 31l-131 10v78h953z" />
    <glyph glyph-name="F" unicode="F" horiz-adv-x="1042" 
d="M1106 1374l-64 -321h-98v194l-20 33h-414l-102 -541h288l37 31l47 148h90l-88 -451h-88l8 147l-24 31h-289l-100 -522l28 -31l144 -10v-82h-514v78l129 10l33 29l219 1138l-21 29l-131 12v78h930z" />
    <glyph glyph-name="G" unicode="G" horiz-adv-x="1359" 
d="M1249 1014h-108l6 192l-19 43q-102 51 -206 51q-102 0 -197.5 -36.5t-177.5 -106.5q-125 -106 -196.5 -272t-71.5 -369q0 -98 29.5 -180t83.5 -139.5t130 -89t166 -31.5q78 0 215 28l78 437l-20 28l-134 11v79h504v-79l-131 -11l-33 -28l-96 -494q-131 -37 -238.5 -54.5
t-193.5 -17.5q-127 0 -230.5 41t-176 116t-112.5 179.5t-40 233.5q0 199 86 376t246 300q115 88 248 134t280 46q113 0 205 -16.5t164 -45.5z" />
    <glyph glyph-name="H" unicode="H" horiz-adv-x="1458" 
d="M672 1374v-78l-135 -10l-31 -31l-96 -489h667l97 489l-25 31l-131 10v78h500v-78l-136 -10l-32 -31l-217 -1136l20 -29l131 -12v-78h-496v78l134 12l30 29l105 553h-666l-106 -553l24 -29l131 -12v-78h-497v78l131 12l32 29l220 1136l-21 31l-133 10v78h500z" />
    <glyph glyph-name="I" unicode="I" horiz-adv-x="638" 
d="M682 1374v-78l-135 -10l-33 -31l-219 -1136l24 -29l134 -12v-78h-500v78l131 12l33 29l219 1136l-23 31l-131 10v78h500z" />
    <glyph glyph-name="J" unicode="J" horiz-adv-x="915" 
d="M965 1374v-78l-134 -10l-32 -31l-137 -731q-27 -143 -64 -246.5t-94.5 -171t-139 -99.5t-198.5 -32q-147 0 -252 50l68 344h102v-260l25 -27q39 -8 71 -8q72 0 119 27.5t80 83t54.5 138.5t43.5 193l144 739l-23 31l-131 10v78h498z" />
    <glyph glyph-name="K" unicode="K" horiz-adv-x="1280" 
d="M666 1374v-78l-134 -10l-32 -31l-111 -559h60l563 555l-13 33l-143 10v80h496v-82l-170 -12l-539 -526l291 -566q16 -31 32.5 -52t38 -34.5t52 -18.5t78.5 -5h41v-78q-72 -4 -118 -6t-67 -2q-55 0 -90 6t-60.5 23.5t-45 46t-41.5 73.5l-238 469h-143l-94 -491l26 -29
l133 -12v-78h-499v78l131 12l32 29l220 1136l-23 31l-131 10v78h498z" />
    <glyph glyph-name="L" unicode="L" horiz-adv-x="1019" 
d="M670 1374v-78l-133 -10l-33 -31l-225 -1161h434l37 33l79 246h99l-72 -373h-913v78l131 10l32 31l220 1136l-21 31l-133 10v78h498z" />
    <glyph glyph-name="M" unicode="M" horiz-adv-x="1718" 
d="M590 1374v-55l186 -1043l574 1035v63h426v-78l-129 -10l-33 -31l-217 -1136l20 -29l131 -12v-78h-485v78l147 12l21 29l219 1149l-707 -1268h-90l-221 1262l-213 -1143l31 -29l121 -12v-78h-426v78l129 12l32 29l218 1136l-23 31l-129 10v78h418z" />
    <glyph glyph-name="N" unicode="N" horiz-adv-x="1398" 
d="M518 1374v-51l490 -1038l188 970l-20 31l-132 10v78h431v-78l-132 -10l-32 -31l-240 -1255h-119l-538 1139l-199 -1020l23 -29l131 -12v-78h-432v78l131 12l32 29l219 1136l-20 31l-133 10v78h352z" />
    <glyph glyph-name="O" unicode="O" horiz-adv-x="1449" 
d="M829 1397q98 0 179.5 -24.5t142.5 -69.5q104 -78 161.5 -193t57.5 -250q0 -174 -48 -325.5t-140 -270.5q-106 -139 -252 -214t-305 -75q-119 0 -218.5 41t-171 115t-111.5 175.5t-40 223.5q0 160 49 307.5t143 270.5q104 139 249.5 214t303.5 75zM1169 858q0 209 -97 327
t-257 118q-104 0 -199.5 -57.5t-173.5 -174.5q-76 -111 -118.5 -256t-42.5 -297q0 -102 25.5 -185t72.5 -140.5t111.5 -88t144.5 -30.5q215 0 373 231q74 111 117.5 255t43.5 298z" />
    <glyph glyph-name="P" unicode="P" horiz-adv-x="1110" 
d="M608 1374q84 0 160 -5t147 -32q90 -33 143.5 -110.5t53.5 -175.5q0 -117 -43 -215.5t-125 -169t-197.5 -110.5t-259.5 -40q-23 0 -54.5 1t-72.5 3l-77 -401l14 -29l131 -12v-78h-485v78l131 12l32 29l220 1136l-23 31l-131 10v78h436zM379 616q23 -2 43 -3t41 -1
q221 0 340 106.5t119 299.5q0 141 -80 204.5t-250 63.5q-20 0 -41 -1t-43 -3z" />
    <glyph glyph-name="Q" unicode="Q" horiz-adv-x="1449" 
d="M1434 -233q-94 -45 -175 -70t-153 -25q-129 0 -214 75t-155 237q-35 -4 -64.5 -6.5t-54.5 -2.5q-115 0 -213 41t-169.5 115t-112.5 175.5t-41 221.5q0 160 50 308.5t144 271.5q106 139 252 214t306 75q94 0 173.5 -24.5t143.5 -72.5q104 -76 161.5 -191.5t57.5 -250.5
q0 -276 -117.5 -489t-334.5 -330q35 -68 65.5 -116t64 -79.5t73.5 -46t96 -14.5q35 0 90 12t127 41v-69zM279 518q0 -100 25.5 -182t72.5 -140.5t112.5 -90t145.5 -31.5q215 0 373 231q74 111 117.5 255.5t43.5 297.5q0 104 -25.5 186t-71.5 139.5t-110.5 88.5t-144.5 31
q-215 0 -375 -232q-76 -111 -119.5 -257t-43.5 -296z" />
    <glyph glyph-name="R" unicode="R" horiz-adv-x="1232" 
d="M674 1374q219 0 325.5 -69.5t106.5 -229.5q0 -158 -104.5 -270.5t-303.5 -155.5q68 -14 108 -46t65.5 -79t42 -107.5t36.5 -131.5q16 -59 33.5 -98.5t43.5 -64t64.5 -34.5t98.5 -10h18v-76q-96 -12 -143 -12q-127 0 -188 51q-55 47 -78 125t-45 182q-10 45 -19.5 83
t-24 68.5t-38 54.5t-62.5 42q-33 16 -118 16q-25 0 -52.5 -1t-60.5 -3l-96 -491l24 -29l133 -10v-78h-499v78l131 10l32 29l220 1138l-23 29l-145 12v78h518zM397 707q20 -2 39 -2h37q215 0 326.5 90t111.5 249q0 123 -77.5 180.5t-239.5 57.5q-20 0 -42 -1t-44 -3z" />
    <glyph glyph-name="S" unicode="S" horiz-adv-x="1099" 
d="M981 1026h-90l8 203l-25 37q-86 39 -178 39q-72 0 -131 -21.5t-102 -58.5t-66.5 -87.5t-23.5 -107.5q0 -55 18.5 -93t52 -66.5t84 -53t115.5 -55.5q76 -35 133.5 -70t96 -74.5t58 -89t19.5 -114.5q0 -94 -41 -174t-113.5 -138.5t-175 -92.5t-225.5 -34q-207 0 -377 95
l68 325h107l-21 -235l21 -27q119 -59 227 -59q160 0 255 82t95 217q0 49 -16.5 81.5t-46 58.5t-71.5 47.5t-91 45.5q-80 41 -144.5 79t-109.5 79t-68.5 89t-23.5 110q0 92 35.5 170.5t102 137t160 92.5t208.5 34q88 0 173 -14.5t169 -45.5z" />
    <glyph glyph-name="T" unicode="T" horiz-adv-x="1157" 
d="M1249 1374l-61 -305h-111l8 191l-22 30h-291l-225 -1171l26 -29l134 -12v-78h-500v78l131 12l33 29l219 1171h-289l-35 -30l-65 -191h-113l59 305h1102z" />
    <glyph glyph-name="U" unicode="U" horiz-adv-x="1359" 
d="M647 1374v-78l-133 -10l-33 -31l-145 -745q-18 -96 -19 -154q0 -123 75 -188.5t216 -65.5q94 0 165 25t120 76t81 127t52 180l145 745l-24 31l-133 10v78h428v-78l-129 -10l-35 -31l-150 -763q-10 -51 -20 -98.5t-26.5 -92.5t-41 -88t-63.5 -82q-72 -72 -180.5 -113
t-245.5 -41q-205 0 -312.5 85t-107.5 249q0 35 7 80t18 101l147 763l-22 31l-131 10v78h497z" />
    <glyph glyph-name="V" unicode="V" horiz-adv-x="1208" 
d="M492 1374v-78l-115 -10l-15 -31l162 -1067l555 1067l-16 31l-119 10v78h385v-78l-108 -12l-703 -1294h-127l-198 1259l-33 37l-97 10v78h429z" />
    <glyph glyph-name="W" unicode="W" horiz-adv-x="1839" 
d="M543 1374v-78l-117 -10l-14 -31l75 -964l508 1083h133l115 -1098l449 979l-17 31l-121 10v78h394v-78l-119 -12l-600 -1284h-117l-121 1124l-522 -1124h-129l-102 1249l-35 37l-99 10v78h439z" />
    <glyph glyph-name="X" unicode="X" horiz-adv-x="1165" 
d="M608 1374v-78l-135 -10l-31 -31l183 -424l372 424l-12 31l-117 10v78h426v-78l-143 -10l-479 -549l270 -618l21 -29l131 -12v-78h-496v78l133 12l33 29l-201 471l-422 -471l21 -29l133 -12v-78h-465v78l133 12l35 29l510 577l-246 559l-20 31l-131 10v78h497z" />
    <glyph glyph-name="Y" unicode="Y" horiz-adv-x="1150" 
d="M561 1374v-78l-133 -10l-33 -31l185 -579l428 579l-21 31l-131 10v78h459v-78l-135 -10l-33 -31l-520 -680l-90 -456l26 -29l133 -12v-78h-497v78l129 12l32 29l86 438l-229 698l-20 31l-134 10v78h498z" />
    <glyph glyph-name="Z" unicode="Z" 
d="M1171 1374l-18 -86l-969 -1188h586l29 27l82 244h100l-70 -371h-962l14 84l967 1192h-508l-45 -27l-70 -192h-106l61 317h909z" />
    <glyph glyph-name="bracketleft" unicode="[" horiz-adv-x="862" 
d="M915 1450l-16 -88h-324l-296 -1546h323l-16 -88h-486l330 1722h485z" />
    <glyph glyph-name="backslash" unicode="\" horiz-adv-x="985" 
d="M999 -190h-114l-813 1564h116z" />
    <glyph glyph-name="bracketright" unicode="]" horiz-adv-x="862" 
d="M725 1450l-330 -1722h-485l16 88h324l297 1546h-324l17 88h485z" />
    <glyph glyph-name="asciicircum" unicode="^" horiz-adv-x="2048" 
d="M1112 1462l520 -565h-92l-518 436l-520 -436h-90l522 565h178z" />
    <glyph glyph-name="underscore" unicode="_" horiz-adv-x="1024" 
d="M1024 -365v-118h-1024v118h1024z" />
    <glyph glyph-name="grave" unicode="`" horiz-adv-x="1024" 
d="M573 1507l123 -389h-102l-223 389h202z" />
    <glyph glyph-name="a" unicode="a" horiz-adv-x="1075" 
d="M946 987q-33 -68 -78 -293l-73 -362q-20 -96 -21 -144q0 -94 111 -94q16 0 44.5 5t69.5 16v-62q-172 -72 -251 -71q-125 0 -125 155v17q-82 -86 -157 -129t-149 -43q-131 0 -206.5 94t-75.5 264q0 203 106 379q78 129 199 198.5t274 69.5q43 0 90.5 -11t94.5 -34l41 45
h106zM621 907q-90 0 -166 -41t-131.5 -114.5t-87 -175t-31.5 -224.5q0 -246 178 -246q115 0 242 136l106 540l-82 125h-28z" />
    <glyph glyph-name="b" unicode="b" horiz-adv-x="1038" 
d="M492 1507q-14 -43 -25.5 -89t-22.5 -99l-88 -481q180 154 303 153q117 0 192 -94t75 -254q0 -133 -41 -252t-119 -215t-182.5 -145t-221.5 -49q-168 0 -311 90l240 1290l-178 33v51l311 61h68zM225 147q82 -82 183 -81q131 0 235 157q49 74 82 180.5t33 212.5
q0 119 -47 184.5t-123 65.5q-55 0 -113.5 -28.5t-132.5 -79.5z" />
    <glyph glyph-name="c" unicode="c" horiz-adv-x="806" 
d="M510 893h-10q-61 0 -117.5 -37t-98.5 -104.5t-66.5 -161.5t-24.5 -209q0 -135 54 -207t150 -72q72 0 154 42t166 128v-94q-96 -100 -193.5 -149t-189.5 -49q-135 0 -219 99t-84 273q0 137 44 255t126 208q78 86 174 132t192 46q86 0 138.5 -42t52.5 -101q0 -47 -35 -79
t-94 -34z" />
    <glyph glyph-name="d" unicode="d" horiz-adv-x="1071" 
d="M1026 1507l-219 -1226q-12 -68 -12 -111q0 -86 90 -86q37 0 133 22v-61q-86 -31 -148.5 -45t-103.5 -14q-137 0 -137 145v20.5t2 20.5q-152 -190 -320 -190q-123 0 -195.5 95t-72.5 271q0 211 100 371q84 131 208 203.5t253 72.5q86 0 164 -34l72 409l-181 21v57l314 59
h53zM641 909q-14 2 -26.5 4t-22.5 2q-70 0 -138.5 -39.5t-123 -113.5t-88 -178.5t-33.5 -233.5q0 -123 48 -187.5t128 -64.5q57 0 125 43t137 131l92 521z" />
    <glyph glyph-name="e" unicode="e" horiz-adv-x="868" 
d="M225 524q96 6 171 30t126 60.5t78 81.5t27 95q0 47 -31 78.5t-76 31.5q-90 0 -170 -95.5t-125 -281.5zM215 455q-6 -43 -6 -95q0 -125 57.5 -195.5t155.5 -70.5q72 0 154.5 42t173.5 126v-96q-190 -184 -398 -184q-145 0 -227 96t-82 276q0 129 48 251t134 214
q78 82 170 125t168 43q98 0 154.5 -55t56.5 -148q0 -131 -142.5 -221t-416.5 -108z" />
    <glyph glyph-name="f" unicode="f" horiz-adv-x="598" 
d="M557 1409q-117 -76 -184 -477h289v-92h-306l-82 -582q-20 -141 -53 -257t-100 -212q-82 -117 -164 -174t-156 -57q-49 0 -79.5 29.5t-30.5 78.5t45 82l213 -55q72 76 106.5 215t63.5 344l86 588l-137 -15l2 68l155 63q51 266 169 404.5t261 138.5q74 0 122 -37t48 -84
q0 -41 -26.5 -68.5t-73.5 -37.5z" />
    <glyph glyph-name="g" unicode="g" horiz-adv-x="985" 
d="M983 938v-88h-211q27 -68 27 -135q0 -84 -32 -156t-86 -123t-125 -79.5t-150 -28.5h-15.5t-32.5 2q-27 -51 -26 -109v-12l325 -148q160 -74 160 -202q0 -57 -38 -111.5t-103.5 -97.5t-155.5 -69.5t-196 -26.5q-180 0 -283.5 74.5t-103.5 197.5q0 98 66.5 164.5
t205.5 120.5q-2 10 -2 17v17q0 96 82 199q-92 37 -140.5 101.5t-48.5 146.5q0 84 31 156.5t85 126t127 84t157 30.5q49 0 96 -13t94 -38h293zM637 727q0 92 -37 139t-102 47q-45 0 -87 -26.5t-75 -72.5t-53.5 -109.5t-20.5 -135.5q0 -84 37 -128t100 -44q43 0 86 26t77 70
t54.5 104t20.5 130zM285 70q-188 -43 -189 -203q0 -98 77 -162.5t200 -64.5q135 0 210.5 54t75.5 124q0 80 -114 131z" />
    <glyph glyph-name="h" unicode="h" horiz-adv-x="1128" 
d="M520 1507q-20 -74 -39.5 -164t-42.5 -198l-67 -350q121 98 217 146t176 48t126 -44t46 -120q0 -39 -8 -84t-21 -100l-71 -317q-10 -41 -15.5 -74t-5.5 -60q0 -102 105 -102q43 0 114 18v-55q-82 -33 -143.5 -48t-102.5 -15q-150 0 -149 125q0 45 14 108l88 379
q10 45 15.5 78t5.5 53q0 66 -25.5 98.5t-85.5 32.5q-51 0 -129 -41t-174 -127l-127 -694h-174l281 1372l-193 17v51l322 67h63z" />
    <glyph glyph-name="i" unicode="i" horiz-adv-x="587" 
d="M412 1442q45 0 77.5 -33t32.5 -78q0 -47 -32.5 -78.5t-77.5 -31.5q-47 0 -79 31.5t-32 78.5t32 79t79 32zM424 987l-148 -766q-6 -35 -6 -51q0 -80 99 -80q55 0 151 31v-64q-172 -72 -289 -71q-131 0 -131 135q0 39 13 106l120 611l-165 30v54l303 65h53z" />
    <glyph glyph-name="j" unicode="j" horiz-adv-x="550" 
d="M399 1436q45 0 78 -32t33 -79t-33 -79t-78 -32q-47 0 -78.5 32t-31.5 79t31.5 79t78.5 32zM436 987l-114 -729q-10 -66 -21.5 -127t-28 -119.5t-42 -115t-64.5 -109.5q-82 -117 -165 -173t-155 -56q-49 0 -78.5 29.5t-29.5 78.5t45 82l211 -55q39 41 64.5 97t44 126
t33 154t30.5 182l92 604l-207 25v47l311 59h74z" />
    <glyph glyph-name="k" unicode="k" horiz-adv-x="1052" 
d="M518 1507l-219 -1020l379 392q106 109 180 108q51 0 84 -29.5t33 -74.5q0 -82 -113 -127l-74 80q-66 -47 -131 -103.5t-133 -118.5q57 -133 104.5 -231t90.5 -163.5t87 -98.5t97 -33q23 0 49.5 4t57.5 10v-57q-90 -29 -150.5 -42t-89.5 -13q-61 0 -106.5 39t-85.5 118
l-175 353l-116 -107l-66 -393h-170l277 1380l-189 11v57l322 59h57z" />
    <glyph glyph-name="l" unicode="l" horiz-adv-x="563" 
d="M489 1507q-10 -57 -16 -90t-8 -43l-207 -1030q-12 -61 -17 -102t-5 -64q0 -96 112 -96q27 0 62.5 8t83.5 25v-64q-88 -37 -157 -53t-116 -16q-150 0 -149 151q0 45 37 236l196 1003l-182 21v53l311 61h55z" />
    <glyph glyph-name="m" unicode="m" horiz-adv-x="1669" 
d="M422 987l-37 -194q238 195 387 194q78 0 121 -47t45 -139q223 186 375 186q74 0 121 -46t47 -128q0 -68 -25 -172l-70 -317q-10 -41 -16 -75t-6 -59q0 -49 27.5 -75.5t76.5 -26.5q43 0 115 18v-55q-168 -63 -246 -63q-150 0 -149 123q0 35 16 110l88 379q10 45 14.5 77
t4.5 54q0 131 -101 131q-59 0 -132.5 -41t-145.5 -125l-133 -696h-170l123 600q18 98 18 141q0 57 -29.5 89t-83.5 32q-41 0 -116.5 -40t-173.5 -128l-129 -694h-172l170 836l-168 32v54l303 65h51z" />
    <glyph glyph-name="n" unicode="n" 
d="M422 987l-37 -196q123 98 219 147t178 49q80 0 126 -44t46 -120q0 -39 -8 -83t-20 -99l-70 -317q-10 -45 -16 -79t-6 -57q0 -100 106 -100q41 0 113 18v-57q-160 -61 -246 -61q-150 0 -150 123q0 39 17 110l88 379q10 45 14 78t4 53q0 68 -25.5 98.5t-84.5 30.5
q-53 0 -131 -41t-172 -127l-127 -692h-174l170 838l-168 30v52l303 67h51z" />
    <glyph glyph-name="o" unicode="o" horiz-adv-x="1028" 
d="M571 989q160 0 254.5 -107.5t94.5 -293.5q0 -123 -43 -235.5t-123 -205.5q-145 -166 -361 -165q-160 0 -254 104t-94 285q0 125 43 242.5t121 205.5q151 170 362 170zM545 909q-66 0 -125.5 -40t-104.5 -111.5t-70.5 -171t-25.5 -217.5q0 -147 53.5 -225t145.5 -78
q66 0 125 39.5t104 110.5t71.5 169t26.5 215q0 154 -53 231.5t-147 77.5z" />
    <glyph glyph-name="p" unicode="p" horiz-adv-x="1056" 
d="M399 987l-24 -125q176 125 309 125q123 0 191.5 -91t68.5 -265q0 -264 -174 -457q-78 -86 -181.5 -134t-207.5 -48q-76 0 -158 39l-67 -381l194 -35v-61h-491v61l121 25l20 22l215 1192l-160 20v52l291 61h53zM244 137q92 -55 176 -55q135 0 229 125q25 33 48.5 80
t40 102t26.5 115.5t10 122.5q0 123 -50 188.5t-134 65.5q-90 0 -230 -109z" />
    <glyph glyph-name="q" unicode="q" horiz-adv-x="1048" 
d="M946 997q-8 -31 -13 -54t-9 -44l-213 -1245l196 -35v-65h-504v65l125 25l23 24l82 473q-164 -154 -305 -153q-127 0 -202 95t-75 269q0 240 135 416q84 111 193.5 170t220.5 59q45 0 93 -14t102 -37l53 51h98zM643 909q-10 2 -20.5 2h-20.5q-137 0 -248 -131
q-57 -70 -97 -187.5t-40 -250.5q0 -111 51 -173.5t140 -62.5q113 0 239 123l98 555z" />
    <glyph glyph-name="r" unicode="r" horiz-adv-x="815" 
d="M403 987l-65 -280q98 141 192.5 210.5t171.5 69.5q53 0 84 -29.5t31 -76.5q0 -59 -37 -96t-100 -37h-14l-54 110q-76 -29 -127 -64.5t-84.5 -81.5t-54 -103.5t-33.5 -127.5l-84 -481h-172l170 838l-168 30v52l303 67h41z" />
    <glyph glyph-name="s" unicode="s" horiz-adv-x="757" 
d="M459 874q-29 20 -64 21q-61 0 -102 -39t-41 -98q0 -55 41 -95t113 -96q45 -35 83.5 -64.5t65.5 -60t42 -65.5t15 -80q0 -68 -27.5 -125t-76.5 -99t-117.5 -66.5t-152.5 -24.5q-129 0 -201 50t-72 130q0 47 30 75.5t77 28.5q39 0 88 -37l-37 -102q49 -72 147 -72
q88 0 137.5 46t49.5 128q0 59 -38 100.5t-104 90.5q-43 33 -78.5 61.5t-61 57t-40 62.5t-14.5 77q0 63 27.5 119.5t74.5 98.5t111.5 66.5t138.5 24.5q88 0 139.5 -37t51.5 -90q0 -43 -31 -71.5t-88 -32.5z" />
    <glyph glyph-name="t" unicode="t" horiz-adv-x="681" 
d="M436 1186l-43 -234h295v-88h-311l-107 -547q-4 -29 -8 -51t-4 -39q0 -127 125 -127q68 0 195 41v-65q-209 -90 -316 -90q-172 0 -172 186q0 25 3 59.5t13 77.5l111 555l-127 -10v61l150 66l102 205h94z" />
    <glyph glyph-name="u" unicode="u" horiz-adv-x="1132" 
d="M416 961l-129 -596q-23 -109 -23 -152q0 -53 32 -83t87 -30q53 0 129 31t162 98l153 740h166l-145 -668q-8 -39 -14.5 -72.5t-6.5 -66.5t29 -56.5t78 -23.5q37 0 115 22v-57q-86 -31 -150.5 -47t-112.5 -16q-123 0 -122 131v19t2 20q-203 -170 -371 -170q-92 0 -145.5 50
t-53.5 142q0 47 17 123l118 539l-170 30v54l322 67z" />
    <glyph glyph-name="v" unicode="v" horiz-adv-x="929" 
d="M195 991q43 0 70.5 -13t45 -43t25.5 -74t14 -105l53 -561q117 150 195 274.5t119 230.5l-39 250q51 41 102 41q53 0 81 -30.5t28 -86.5q0 -106 -137.5 -328t-423.5 -546h-99q29 55 29 133q0 18 -1 36.5t-3 37.5l-51 479q-8 72 -21.5 115t-40.5 59l-157 12v52l206 67h5z
" />
    <glyph glyph-name="w" unicode="w" horiz-adv-x="1460" 
d="M307 989l45 -807q102 193 198.5 380.5t178.5 379.5l123 14q12 -285 55 -802q129 172 213 307t119 244l-41 239q39 47 105 47q51 0 78.5 -30.5t27.5 -86.5q0 -115 -136 -327.5t-390 -546.5h-119l-49 715q-41 -88 -137.5 -266.5t-253.5 -448.5h-134l17 45l-55 811l-152 18
v50l236 69z" />
    <glyph glyph-name="x" unicode="x" horiz-adv-x="976" 
d="M264 993q6 0 11.5 1t11.5 1q45 0 74.5 -25.5t52 -76.5t43 -129t47.5 -182q203 412 391 411q49 0 83 -33.5t34 -80.5q0 -74 -101 -115l-88 80q-139 -37 -274 -350q31 -104 53.5 -180t47 -126.5t54 -75t76.5 -24.5q31 0 109 23v-64q-147 -59 -230 -59q-53 0 -87.5 23.5
t-59.5 73.5t-45.5 128t-44.5 186q-100 -211 -194.5 -313t-196.5 -102q-59 0 -93 30.5t-34 79.5q0 86 100 105l94 -88q70 37 145.5 133t139.5 250q-41 141 -78 229t-78 127l-170 22v50l207 71v0z" />
    <glyph glyph-name="y" unicode="y" horiz-adv-x="972" 
d="M170 993q6 2 13 2h14q49 0 78.5 -26.5t50 -80.5t37 -137t38.5 -196l68 -346q66 166 144.5 358.5t177.5 419.5h38l162 -53v-43l-104 -62q-55 -63 -101.5 -146t-91.5 -181.5t-95 -208t-114 -223.5q-141 -258 -278 -386t-266 -128q-76 0 -124 39.5t-48 95.5q0 41 29.5 72.5
t80.5 39.5l121 -120q94 6 180 96t178 264l-6 -4l-127 616q-27 141 -82 213l-174 15v45l201 65v0z" />
    <glyph glyph-name="z" unicode="z" horiz-adv-x="901" 
d="M889 938l-707 -788l199 51q150 -68 209 -68q78 0 127 74l-113 125q43 74 98 74q43 0 72 -34t29 -89q0 -53 -23.5 -104.5t-62.5 -92.5t-91.5 -65.5t-107.5 -24.5q-43 0 -85 13.5t-82 30.5t-77.5 30.5t-74.5 13.5q-33 0 -66 -18l-49 -89l-113 62l705 790l-203 -45
q-115 59 -180 60q-82 0 -129 -66l108 -131q-37 -66 -96 -65q-43 0 -69.5 31.5t-26.5 88.5q0 53 23.5 105.5t61.5 92.5t88 64.5t103 24.5q47 0 87 -16.5t81 -38.5q41 -20 74 -33.5t66 -13.5q25 0 61 16l39 101z" />
    <glyph glyph-name="braceleft" unicode="{" horiz-adv-x="995" 
d="M856 1364q-78 -2 -128 -15.5t-80 -42t-42 -74.5t-12 -114v-166q0 -80 -13.5 -140t-44 -103t-82 -71t-126.5 -44q145 -33 206.5 -113t61.5 -233v-170q0 -78 8 -129t35 -83t79 -45.5t138 -15.5v-79h-51q-109 0 -180.5 18t-114.5 62t-60.5 116t-17.5 178v174
q0 152 -55 213.5t-197 61.5h-47v90q14 -2 27.5 -2h25.5q137 0 190.5 60.5t53.5 203.5v209q0 176 94 253t305 77h27v-76z" />
    <glyph glyph-name="bar" unicode="|" horiz-adv-x="1024" 
d="M575 1565v-2048h-126v2048h126z" />
    <glyph glyph-name="braceright" unicode="}" horiz-adv-x="995" 
d="M158 1440q211 0 305 -77t94 -253v-209q0 -72 12.5 -122t41 -81.5t74.5 -46t116 -14.5h25.5t27.5 2v-90h-47q-141 0 -196.5 -61.5t-55.5 -213.5v-174q0 -106 -17.5 -178t-60.5 -116t-114.5 -62t-182.5 -18h-49v79q86 2 138.5 15.5t79 45.5t34.5 83t8 129v170
q0 154 61.5 233.5t206.5 112.5q-78 16 -129 44t-81.5 71t-43 103t-12.5 140v166q0 68 -12 114t-42 74.5t-81 42t-127 15.5v76h27z" />
    <glyph glyph-name="asciitilde" unicode="~" horiz-adv-x="1705" 
d="M1530 627q-201 -143 -387 -144q-86 0 -191 35q-106 35 -199.5 69t-189.5 34q-92 0 -183 -41t-202 -119v133q211 145 387 145q80 0 150.5 -20.5t140.5 -44.5q74 -27 142.5 -49.5t146.5 -22.5q92 0 184 40t201 116v-131z" />
    <glyph glyph-name="exclamdown" unicode="&#xa1;" horiz-adv-x="692" 
d="M453 1399q47 0 80.5 -35t33.5 -82t-33.5 -82t-80.5 -35q-49 0 -84 34t-35 83t35 83t84 34zM467 1030l-92 -782q-16 -133 -46 -199.5t-114 -66.5q-90 0 -90 98q0 33 35 168l207 782h100z" />
    <glyph glyph-name="dieresis" unicode="&#xa8;" horiz-adv-x="1024" 
d="M436 1417q45 0 76 -30.5t31 -73.5t-32 -74t-75 -31q-41 0 -71.5 31t-30.5 74q0 45 30.5 74.5t71.5 29.5zM819 1417q45 0 75 -30.5t30 -73.5t-31 -74t-74 -31q-41 0 -72.5 31t-31.5 74q0 45 31.5 74.5t72.5 29.5z" />
    <glyph glyph-name="copyright" unicode="&#xa9;" horiz-adv-x="1843" 
d="M928 1487q156 0 303 -62.5t258 -175.5q109 -111 167 -256t58 -305q0 -154 -62.5 -298t-178.5 -261q-111 -111 -252.5 -167t-305.5 -56q-152 0 -293 59.5t-253 171.5q-115 115 -173.5 257.5t-58.5 301.5q0 158 58.5 299.5t171.5 255.5q111 113 256 174.5t305 61.5z
M928 1403q-141 0 -269.5 -54.5t-226.5 -154.5q-100 -104 -152.5 -230t-52.5 -268q0 -293 205 -497q104 -102 228 -154.5t266 -52.5q141 0 267 52t224 155q100 104 153.5 231t53.5 266q0 141 -53 271.5t-152 228.5q-98 98 -227 152.5t-264 54.5zM1247 883h-88l-31 153
q-76 45 -159 45q-74 0 -135.5 -28.5t-106.5 -79.5t-70.5 -123t-25.5 -156t25.5 -155.5t69.5 -124t103.5 -82t128.5 -29.5q37 0 80 11.5t95 29.5l26 172h88v-256q-72 -25 -147.5 -38t-153.5 -13q-109 0 -200 36t-156.5 99.5t-101 152.5t-35.5 195t35.5 195.5t102 154
t160 99.5t207.5 35q66 0 138.5 -11.5t150.5 -36.5v-245z" />
    <glyph glyph-name="guillemotleft" unicode="&#xab;" horiz-adv-x="905" 
d="M420 711l-283 -219l199 -222l-27 -133l-282 273l30 163l389 273zM825 711l-282 -219l196 -222l-24 -133l-283 273l31 163l387 273z" />
    <glyph glyph-name="acute" unicode="&#xb4;" horiz-adv-x="1024" 
d="M993 1507l-375 -389h-100l273 389h202z" />
    <glyph glyph-name="guillemotright" unicode="&#xbb;" horiz-adv-x="905" 
d="M408 573l-31 -163l-389 -273l24 133l283 222l-197 219l25 135zM811 573l-31 -163l-389 -273l27 133l282 222l-198 219l26 135z" />
    <glyph glyph-name="questiondown" unicode="&#xbf;" horiz-adv-x="995" 
d="M659 1399q47 0 82 -35t35 -82t-34.5 -82t-82.5 -35q-49 0 -82.5 34t-33.5 83t34.5 83t81.5 34zM676 1030l-58 -299q-186 -66 -279 -179.5t-93 -260.5q0 -215 241 -215h7l122 203q10 2 19.5 2h17.5q104 0 105 -80q0 -43 -24.5 -83t-68.5 -71t-106.5 -48t-138.5 -17
q-174 0 -268.5 78.5t-94.5 213.5q0 334 467 517l45 239h107z" />
    <glyph glyph-name="Aacute" unicode="&#xc1;" horiz-adv-x="1241" 
d="M842 1386l219 -1261l35 -37l100 -10v-78h-448v78l120 10l15 29l-64 391h-497l-220 -391l17 -29l125 -10v-78h-406v78l113 12l756 1296h135zM373 596h428l-94 590zM1157 1900l-375 -389h-100l273 389h202z" />
    <glyph glyph-name="Eacute" unicode="&#xc9;" horiz-adv-x="1118" 
d="M1133 1374l-58 -299h-98v174l-23 31h-440l-100 -518h311l37 29l45 149h88l-86 -451h-84l8 148l-24 29h-314l-110 -572h522l37 33l69 207h95l-66 -334h-991v78l129 12l35 29l219 1136l-23 31l-131 10v78h953zM1095 1900l-375 -389h-100l273 389h202z" />
    <glyph glyph-name="Iacute" unicode="&#xcd;" horiz-adv-x="638" 
d="M682 1374v-78l-135 -10l-33 -31l-219 -1136l24 -29l134 -12v-78h-500v78l131 12l33 29l219 1136l-23 31l-131 10v78h500zM858 1900l-375 -389h-100l273 389h202z" />
    <glyph glyph-name="Ntilde" unicode="&#xd1;" horiz-adv-x="1398" 
d="M518 1374v-51l490 -1038l188 970l-20 31l-132 10v78h431v-78l-132 -10l-32 -31l-240 -1255h-119l-538 1139l-199 -1020l23 -29l131 -12v-78h-432v78l131 12l32 29l219 1136l-20 31l-133 10v78h352zM1213 1843q-14 -117 -77 -181.5t-140 -64.5q-45 0 -86 16.5t-76 35
t-64.5 35t-50.5 16.5q-35 0 -63.5 -35t-32.5 -98h-88q18 123 74.5 184t146.5 61q41 0 78 -16.5t69.5 -36.5t62.5 -36.5t56 -16.5q84 0 105 137h86z" />
    <glyph glyph-name="Oacute" unicode="&#xd3;" horiz-adv-x="1449" 
d="M829 1397q98 0 179.5 -24.5t142.5 -69.5q104 -78 161.5 -193t57.5 -250q0 -174 -48 -325.5t-140 -270.5q-106 -139 -252 -214t-305 -75q-119 0 -218.5 41t-171 115t-111.5 175.5t-40 223.5q0 160 49 307.5t143 270.5q104 139 249.5 214t303.5 75zM1169 858q0 209 -97 327
t-257 118q-104 0 -199.5 -57.5t-173.5 -174.5q-76 -111 -118.5 -256t-42.5 -297q0 -102 25.5 -185t72.5 -140.5t111.5 -88t144.5 -30.5q215 0 373 231q74 111 117.5 255t43.5 298zM1261 1900l-375 -389h-100l273 389h202z" />
    <glyph glyph-name="Uacute" unicode="&#xda;" horiz-adv-x="1359" 
d="M647 1374v-78l-133 -10l-33 -31l-145 -745q-18 -96 -19 -154q0 -123 75 -188.5t216 -65.5q94 0 165 25t120 76t81 127t52 180l145 745l-24 31l-133 10v78h428v-78l-129 -10l-35 -31l-150 -763q-10 -51 -20 -98.5t-26.5 -92.5t-41 -88t-63.5 -82q-72 -72 -180.5 -113
t-245.5 -41q-205 0 -312.5 85t-107.5 249q0 35 7 80t18 101l147 763l-22 31l-131 10v78h497zM1216 1900l-375 -389h-100l273 389h202z" />
    <glyph glyph-name="Udieresis" unicode="&#xdc;" horiz-adv-x="1359" 
d="M647 1374v-78l-133 -10l-33 -31l-145 -745q-18 -96 -19 -154q0 -123 75 -188.5t216 -65.5q94 0 165 25t120 76t81 127t52 180l145 745l-24 31l-133 10v78h428v-78l-129 -10l-35 -31l-150 -763q-10 -51 -20 -98.5t-26.5 -92.5t-41 -88t-63.5 -82q-72 -72 -180.5 -113
t-245.5 -41q-205 0 -312.5 85t-107.5 249q0 35 7 80t18 101l147 763l-22 31l-131 10v78h497zM659 1810q45 0 76 -30.5t31 -73.5t-32 -74t-75 -31q-41 0 -71.5 31t-30.5 74q0 45 30.5 74.5t71.5 29.5zM1042 1810q45 0 75 -30.5t30 -73.5t-31 -74t-74 -31q-41 0 -72.5 31
t-31.5 74q0 45 31.5 74.5t72.5 29.5z" />
    <glyph glyph-name="aacute" unicode="&#xe1;" horiz-adv-x="1075" 
d="M946 987q-33 -68 -78 -293l-73 -362q-20 -96 -21 -144q0 -94 111 -94q16 0 44.5 5t69.5 16v-62q-172 -72 -251 -71q-125 0 -125 155v17q-82 -86 -157 -129t-149 -43q-131 0 -206.5 94t-75.5 264q0 203 106 379q78 129 199 198.5t274 69.5q43 0 90.5 -11t94.5 -34l41 45
h106zM621 907q-90 0 -166 -41t-131.5 -114.5t-87 -175t-31.5 -224.5q0 -246 178 -246q115 0 242 136l106 540l-82 125h-28zM1020 1507l-375 -389h-100l273 389h202z" />
    <glyph glyph-name="eacute" unicode="&#xe9;" horiz-adv-x="868" 
d="M225 524q96 6 171 30t126 60.5t78 81.5t27 95q0 47 -31 78.5t-76 31.5q-90 0 -170 -95.5t-125 -281.5zM215 455q-6 -43 -6 -95q0 -125 57.5 -195.5t155.5 -70.5q72 0 154.5 42t173.5 126v-96q-190 -184 -398 -184q-145 0 -227 96t-82 276q0 129 48 251t134 214
q78 82 170 125t168 43q98 0 154.5 -55t56.5 -148q0 -131 -142.5 -221t-416.5 -108zM944 1507l-375 -389h-100l273 389h202z" />
    <glyph glyph-name="iacute" unicode="&#xed;" horiz-adv-x="587" 
d="M424 987l-148 -766q-6 -35 -6 -51q0 -80 99 -80q55 0 151 31v-64q-172 -72 -289 -71q-131 0 -131 135q0 39 13 106l120 611l-165 30v54l303 65h53zM778 1507l-375 -389h-100l273 389h202z" />
    <glyph glyph-name="ntilde" unicode="&#xf1;" 
d="M422 987l-37 -196q123 98 219 147t178 49q80 0 126 -44t46 -120q0 -39 -8 -83t-20 -99l-70 -317q-10 -45 -16 -79t-6 -57q0 -100 106 -100q41 0 113 18v-57q-160 -61 -246 -61q-150 0 -150 123q0 39 17 110l88 379q10 45 14 78t4 53q0 68 -25.5 98.5t-84.5 30.5
q-53 0 -131 -41t-172 -127l-127 -692h-174l170 838l-168 30v52l303 67h51zM994 1450q-14 -117 -77 -181.5t-140 -64.5q-45 0 -86 16.5t-76 35t-64.5 35t-50.5 16.5q-35 0 -63.5 -35t-32.5 -98h-88q18 123 74.5 184t146.5 61q41 0 78 -16.5t69.5 -36.5t62.5 -36.5t56 -16.5
q84 0 105 137h86z" />
    <glyph glyph-name="oacute" unicode="&#xf3;" horiz-adv-x="1028" 
d="M571 989q160 0 254.5 -107.5t94.5 -293.5q0 -123 -43 -235.5t-123 -205.5q-145 -166 -361 -165q-160 0 -254 104t-94 285q0 125 43 242.5t121 205.5q151 170 362 170zM545 909q-66 0 -125.5 -40t-104.5 -111.5t-70.5 -171t-25.5 -217.5q0 -147 53.5 -225t145.5 -78
q66 0 125 39.5t104 110.5t71.5 169t26.5 215q0 154 -53 231.5t-147 77.5zM995 1507l-375 -389h-100l273 389h202z" />
    <glyph glyph-name="uacute" unicode="&#xfa;" horiz-adv-x="1132" 
d="M416 961l-129 -596q-23 -109 -23 -152q0 -53 32 -83t87 -30q53 0 129 31t162 98l153 740h166l-145 -668q-8 -39 -14.5 -72.5t-6.5 -66.5t29 -56.5t78 -23.5q37 0 115 22v-57q-86 -31 -150.5 -47t-112.5 -16q-123 0 -122 131v19t2 20q-203 -170 -371 -170q-92 0 -145.5 50
t-53.5 142q0 47 17 123l118 539l-170 30v54l322 67zM1003 1507l-375 -389h-100l273 389h202z" />
    <glyph glyph-name="udieresis" unicode="&#xfc;" horiz-adv-x="1132" 
d="M416 961l-129 -596q-23 -109 -23 -152q0 -53 32 -83t87 -30q53 0 129 31t162 98l153 740h166l-145 -668q-8 -39 -14.5 -72.5t-6.5 -66.5t29 -56.5t78 -23.5q37 0 115 22v-57q-86 -31 -150.5 -47t-112.5 -16q-123 0 -122 131v19t2 20q-203 -170 -371 -170q-92 0 -145.5 50
t-53.5 142q0 47 17 123l118 539l-170 30v54l322 67zM446 1417q45 0 76 -30.5t31 -73.5t-32 -74t-75 -31q-41 0 -71.5 31t-30.5 74q0 45 30.5 74.5t71.5 29.5zM829 1417q45 0 75 -30.5t30 -73.5t-31 -74t-74 -31q-41 0 -72.5 31t-31.5 74q0 45 31.5 74.5t72.5 29.5z" />
    <glyph glyph-name="dotlessi" unicode="&#x131;" horiz-adv-x="587" 
d="M424 987l-148 -766q-6 -35 -6 -51q0 -80 99 -80q55 0 151 31v-64q-172 -72 -289 -71q-131 0 -131 135q0 39 13 106l120 611l-165 30v54l303 65h53z" />
    <glyph glyph-name="tilde" unicode="&#x2dc;" horiz-adv-x="1024" 
d="M971 1450q-14 -117 -77 -181.5t-140 -64.5q-45 0 -86 16.5t-76 35t-64.5 35t-50.5 16.5q-35 0 -63.5 -35t-32.5 -98h-88q18 123 74.5 184t146.5 61q41 0 78 -16.5t69.5 -36.5t62.5 -36.5t56 -16.5q84 0 105 137h86z" />
    <glyph glyph-name="emdash" unicode="&#x2014;" horiz-adv-x="2048" 
d="M2005 430h-2044l25 125h2044z" />
    <glyph glyph-name="quoteleft" unicode="&#x2018;" horiz-adv-x="411" 
d="M504 1460q-113 -104 -171.5 -191t-58.5 -167v-4h132q14 -27 14 -54q0 -53 -41 -96t-105 -43q-59 0 -95 36t-36 101q0 92 68 200t205 218h88z" />
    <glyph glyph-name="quoteright" unicode="&#x2019;" horiz-adv-x="411" 
d="M104 905q121 111 175.5 197t54.5 158v8h-131q-14 27 -15 53q0 53 42 96t104 43q59 0 95 -37t36 -98q0 -96 -67.5 -202.5t-204.5 -217.5h-89z" />
    <glyph glyph-name="quotedblleft" unicode="&#x201c;" horiz-adv-x="825" 
d="M504 1460q-113 -104 -171.5 -191t-58.5 -167v-4h132q14 -27 14 -54q0 -53 -41 -96t-105 -43q-59 0 -95 36t-36 101q0 92 68 200t205 218h88zM918 1460q-119 -111 -174.5 -196.5t-55.5 -157.5v-8h131q14 -27 15 -54q0 -53 -42 -96t-106 -43q-59 0 -94 36t-35 101
q0 92 67.5 200t204.5 218h89z" />
    <glyph glyph-name="quotedblright" unicode="&#x201d;" horiz-adv-x="825" 
d="M104 905q121 111 175.5 197t54.5 158v8h-131q-14 27 -15 53q0 53 42 96t104 43q59 0 95 -37t36 -98q0 -96 -67.5 -202.5t-204.5 -217.5h-89zM518 905q121 111 175.5 197t54.5 158v8h-134q-14 27 -14 53q0 53 43 96t105 43q59 0 94 -37t35 -98q0 -96 -67 -202.5
t-204 -217.5h-88z" />
    <glyph glyph-name="bullet" unicode="&#x2022;" horiz-adv-x="1208" 
d="M307 762q0 61 23.5 114.5t63.5 93.5t94.5 63.5t115.5 23.5t114.5 -23.5t93.5 -63.5t63.5 -93.5t23.5 -114.5t-23.5 -114.5t-63.5 -94.5t-94 -64.5t-116 -23.5q-61 0 -115.5 23.5t-94.5 63.5t-62.5 94.5t-22.5 115.5z" />
    <glyph glyph-name="arrowright" unicode="&#x2192;" horiz-adv-x="1671" 
d="M1057 -33l-115 129l356 326l-1226 4l-4 184h1230l-356 326l115 129l563 -545v-8z" />
    <glyph glyph-name="infinity" unicode="&#x221e;" horiz-adv-x="1607" 
d="M1214 475q98 0 153.5 56.5t55.5 142.5q0 51 -18.5 93t-50 71.5t-73.5 46t-91 16.5t-90 -10t-76 -31.5t-68.5 -55.5t-70.5 -79q39 -49 79 -95t79.5 -80t82.5 -54.5t88 -20.5zM418 444q49 0 89 10.5t75.5 32t69.5 55t71 79.5q-39 51 -78 96t-80 78.5t-84 54t-88 20.5
q-98 0 -153.5 -56t-55.5 -142q0 -51 18.5 -93t50.5 -72t74 -46.5t91 -16.5zM1210 1032q68 0 126.5 -25.5t100.5 -71.5t66.5 -110.5t24.5 -140.5q0 -80 -25.5 -147.5t-71 -116.5t-110 -78t-139.5 -29q-68 0 -125.5 20.5t-107.5 54.5t-94 78t-83 93q-88 -133 -181 -189.5
t-192 -56.5q-68 0 -126 26t-101 72t-66.5 109.5t-23.5 141.5q0 80 24.5 147.5t70.5 116.5t109.5 77.5t141.5 28.5q68 0 125 -20.5t106.5 -54t93.5 -77.5t83 -94q86 135 180 190.5t194 55.5z" />
  </font>
</defs>
</svg>
