<?xml version="1.0" standalone="no"?>
<!DOCTYPE svg PUBLIC "-//W3C//DTD SVG 1.1//EN" "http://www.w3.org/Graphics/SVG/1.1/DTD/svg11.dtd" >
<svg xmlns="http://www.w3.org/2000/svg" xmlns:xlink="http://www.w3.org/1999/xlink" version="1.1">
<metadata>
Created by FontForge 20161003 at Mon Jun  4 01:14:54 2018
 By www-data
Digitized data copyright (c) 2010 Google Corporation.  OFL; Reserved name "Cousine"
</metadata>
<defs>
<font id="WTerm" horiz-adv-x="1229" >
  <font-face 
    font-family="WTerm"
    font-weight="400"
    font-stretch="normal"
    units-per-em="2048"
    panose-1="2 7 4 9 2 2 5 2 4 4"
    ascent="1638"
    descent="-410"
    x-height="1082"
    cap-height="1349"
    bbox="-10 -455 1238 1704"
    underline-thickness="84"
    underline-position="-603"
    unicode-range="U+0020-2666"
  />
<missing-glyph 
d="M68 0v1365h544v-1365h-544zM136 68h408v1229h-408v-1229z" />
    <glyph glyph-name=".notdef" 
d="M68 0v1365h544v-1365h-544zM136 68h408v1229h-408v-1229z" />
    <glyph glyph-name=".null" horiz-adv-x="0" 
 />
    <glyph glyph-name="nonmarkingreturn" 
 />
    <glyph glyph-name="space" unicode=" " 
 />
    <glyph glyph-name="space" unicode="&#xa0;" 
 />
    <glyph glyph-name="exclam" unicode="!" 
d="M689 397h-148l-24 951h196zM515 0v201h194v-201h-194z" />
    <glyph glyph-name="quotedbl" unicode="&#x22;" 
d="M908 845h-142l-40 639h224zM459 845h-141l-41 639h224z" />
    <glyph glyph-name="numbersign" unicode="#" 
d="M930 833l-67 -317h260v-108h-283l-88 -408h-110l86 408h-363l-84 -408h-110l84 408h-201v108h225l67 317h-241v108h263l89 408h110l-88 -408h363l88 408h110l-88 -408h211v-108h-233zM459 833l-69 -317h362l67 317h-360z" />
    <glyph glyph-name="dollar" unicode="$" 
d="M1150 380q0 -75 -28 -139t-85 -111.5t-144.5 -76t-206.5 -33.5v-161h-128v161q-215 7 -336.5 99.5t-155.5 259.5l170 37q11 -54 33.5 -99.5t61 -79.5t94.5 -54.5t133 -24.5v489q-8 2 -15 4q-4 1 -10 3q-3 1 -5 1q-49 12 -98 26.5t-93 34t-82 47t-66 64t-43.5 85
t-15.5 111.5q0 82 32 141.5t89 99t135.5 59.5t171.5 23v130h128v-130q102 -4 174.5 -26t123.5 -62t83 -98.5t52 -134.5l-174 -33q-10 48 -29.5 87.5t-51 68t-75.5 45t-103 20.5v-426q58 -14 115 -29.5t108.5 -37t95.5 -50.5t76.5 -69.5t50.5 -94.5t18 -126zM302 1018
q0 -54 20 -89.5t54.5 -59t81 -38.5t100.5 -29v413q-71 -3 -120 -19.5t-79 -43t-43.5 -61t-13.5 -73.5zM978 383q0 63 -24 103.5t-64 66.5t-93 42.5t-111 31.5v-471q65 4 118.5 19t92 43t60 69t21.5 96z" />
    <glyph glyph-name="percent" unicode="%" 
d="M221 0h-145l932 1353h147zM291 1361q58 0 109.5 -15.5t90 -54t61 -103t22.5 -163.5q0 -96 -22.5 -161t-61.5 -105t-91 -57.5t-112 -17.5t-112.5 17.5t-91.5 57t-61 105t-22 161.5q0 99 22.5 163.5t61.5 103t92 54t115 15.5zM427 1025q0 66 -9 110t-26.5 70.5t-43 37
t-58.5 10.5q-35 0 -62 -11t-45 -37.5t-27 -70t-9 -109.5q0 -64 9.5 -107.5t27.5 -70.5t44.5 -38.5t60.5 -11.5q32 0 57.5 11.5t43.5 38.5t27.5 70.5t9.5 107.5zM947 665q58 0 109.5 -15.5t90 -54t61 -103t22.5 -163.5q0 -96 -22.5 -161t-61.5 -105t-91 -57.5t-112 -17.5
t-112.5 17.5t-91.5 57t-61 105t-22 161.5q0 99 22.5 163.5t61.5 103t92 54t115 15.5zM1083 329q0 66 -9 110t-26.5 70.5t-43 37t-58.5 10.5q-35 0 -62 -11t-45 -37.5t-27 -70t-9 -109.5q0 -64 9.5 -107.5t27.5 -70.5t44.5 -38.5t60.5 -11.5q32 0 57.5 11.5t43.5 38.5
t27.5 70.5t9.5 107.5z" />
    <glyph glyph-name="ampersand" unicode="&#x26;" 
d="M1072 -12q-41 0 -79 10.5t-71.5 28t-62.5 41t-51 49.5q-28 -25 -63.5 -50t-78.5 -44t-94.5 -31t-110.5 -12q-109 0 -188 29t-130 80t-75.5 120t-24.5 149q0 77 22.5 140t61.5 114.5t92.5 92t115.5 72.5q-15 28 -28.5 62t-24 70.5t-16.5 74.5t-6 75q0 62 21.5 116.5t65 95
t109.5 63.5t155 23q69 0 128 -17.5t102 -51.5t67 -84t24 -114q0 -71 -34 -125t-91 -97t-130.5 -78t-151.5 -68q31 -54 62 -104t65 -98t71 -94.5t79 -92.5q42 87 73.5 186t51.5 220l145 -43q-26 -139 -69.5 -253.5t-92.5 -208.5q43 -54 91.5 -79.5t88.5 -25.5q26 0 50 3.5
t45 12.5v-135q-24 -11 -52 -16.5t-61 -5.5zM780 1085q0 34 -12 62t-34.5 47.5t-54.5 30.5t-71 11q-44 0 -80.5 -12.5t-63 -35.5t-41.5 -56.5t-15 -75.5q0 -65 19 -123t42 -101q64 27 120.5 52t99 54t67 64.5t24.5 82.5zM706 217q-89 100 -169.5 212.5t-146.5 228.5
q-85 -46 -132 -120.5t-47 -175.5q0 -52 16 -98t48 -80t80.5 -53.5t113.5 -19.5q39 0 74.5 9.5t65.5 24.5t54.5 34t42.5 38z" />
    <glyph glyph-name="quotesingle" unicode="'" 
d="M684 845h-141l-41 639h224z" />
    <glyph glyph-name="parenleft" unicode="(" 
d="M529 530q0 -138 20.5 -260t64.5 -237t112.5 -227.5t164.5 -230.5h-190q-92 113 -159.5 222.5t-112 224.5t-66 240.5t-21.5 269.5t21.5 268.5t66 239t112 223t159.5 221.5h190q-96 -118 -164.5 -230.5t-112.5 -227.5t-64.5 -237t-20.5 -259z" />
    <glyph glyph-name="parenright" unicode=")" 
d="M885 532q0 -144 -21 -269.5t-65 -240.5t-111.5 -224.5t-159.5 -222.5h-192q96 118 165 230.5t113 227.5t65 237t21 260q0 137 -21 259t-65 237t-113 227.5t-165 230.5h192q92 -113 159.5 -221.5t111.5 -223t65 -239t21 -268.5z" />
    <glyph glyph-name="asterisk" unicode="*" 
d="M671 1188l264 103l45 -132l-282 -73l185 -250l-119 -72l-150 258l-156 -256l-119 72l189 248l-280 73l45 134l267 -107l-12 297h136z" />
    <glyph glyph-name="plus" unicode="+" 
d="M687 608v-428h-147v428h-424v146h424v428h147v-428h424v-146h-424z" />
    <glyph glyph-name="comma" unicode="," 
d="M259 -363l169 662h265l-311 -662h-123z" />
    <glyph glyph-name="hyphen" unicode="-" 
d="M334 464v160h560v-160h-560z" />
    <glyph glyph-name="hyphen" unicode="&#xad;" 
d="M334 464v160h560v-160h-560z" />
    <glyph glyph-name="period" unicode="." 
d="M496 0v299h235v-299h-235z" />
    <glyph glyph-name="slash" unicode="/" 
d="M114 -20l821 1504h178l-817 -1504h-182z" />
    <glyph glyph-name="zero" unicode="0" 
d="M1103 675q0 -195 -38.5 -327.5t-105 -214.5t-156.5 -117.5t-192 -35.5q-103 0 -192 35.5t-154.5 117t-103 214.5t-37.5 328q0 204 37.5 338t103.5 213.5t156 111.5t196 32q101 0 189.5 -32t154.5 -111.5t104 -213.5t38 -338zM920 675q0 159 -20 265t-59 169t-95.5 89
t-128.5 26q-76 0 -134 -26.5t-97.5 -89.5t-59.5 -168.5t-20 -264.5q0 -154 20.5 -259t60 -169t96.5 -92t130 -28q71 0 128 28t96.5 92t61 169t21.5 259zM496 555v249h235v-249h-235z" />
    <glyph glyph-name="one" unicode="1" 
d="M157 0v145h439v1021q-19 -40 -67 -75.5t-110.5 -61.5t-133.5 -41.5t-137 -15.5v148q74 0 145.5 17t133.5 47.5t110 72.5t74 92h166v-1204h353v-145h-973z" />
    <glyph glyph-name="two" unicode="2" 
d="M144 0v117q44 97 116 179t153.5 154.5t164 138.5t149 130.5t108.5 131t42 140.5q0 60 -19.5 103.5t-55 72t-84 42t-107.5 13.5q-54 0 -100.5 -15t-81.5 -45t-57 -74.5t-29 -103.5l-184 17q9 76 41 143t87.5 117.5t136.5 79.5t187 29q105 0 188.5 -24t142 -70.5
t89.5 -115.5t31 -158q0 -94 -43 -174.5t-110.5 -152.5t-149.5 -137t-160 -129t-142 -128.5t-96 -134.5h723v-146h-940z" />
    <glyph glyph-name="three" unicode="3" 
d="M1099 370q0 -91 -31.5 -163.5t-92 -122.5t-149.5 -77t-205 -27q-130 0 -220 32.5t-148 86t-87 122t-38 141.5l186 17q8 -56 29.5 -102t58.5 -79t91.5 -51t127.5 -18q136 0 213.5 63t77.5 184q0 68 -34.5 113t-86 71.5t-112 37.5t-111.5 11h-102v156h98q51 0 106 12.5
t100.5 40t75 72t29.5 107.5q0 106 -66.5 165.5t-197.5 59.5q-119 0 -192.5 -61t-85.5 -172l-181 14q11 93 51 162t101.5 114.5t140.5 68t168 22.5q119 0 203.5 -28t138.5 -76t79.5 -112.5t25.5 -137.5q0 -55 -18.5 -106.5t-55 -94.5t-92 -75t-129.5 -47v-4q82 -9 144.5 -39
t104.5 -73.5t63.5 -96.5t21.5 -110z" />
    <glyph glyph-name="four" unicode="4" 
d="M937 319v-319h-180v319h-654v140l635 890h199v-888h188v-142h-188zM757 1154l-500 -693h500v693z" />
    <glyph glyph-name="five" unicode="5" 
d="M1099 444q0 -100 -32 -185.5t-95 -147t-156.5 -96.5t-216.5 -35q-111 0 -193.5 26t-139.5 71.5t-90.5 106.5t-47.5 131l182 21q11 -40 31 -77.5t54.5 -67t85 -47t122.5 -17.5q70 0 127 21.5t97.5 61.5t62.5 98.5t22 131.5q0 60 -21 111.5t-60 89.5t-95.5 59.5
t-128.5 21.5q-45 0 -83 -8t-70.5 -22t-59 -32.5t-49.5 -38.5h-176l47 728h801v-145h-635l-29 -425q48 37 120 63.5t171 26.5q105 0 189 -32t143 -88.5t91 -134.5t32 -170z" />
    <glyph glyph-name="six" unicode="6" 
d="M1096 446q0 -100 -29.5 -185.5t-87 -148t-142.5 -97.5t-196 -35q-123 0 -215 46.5t-153 132.5t-91.5 208.5t-30.5 274.5q0 177 34.5 313t99.5 228t158.5 139.5t211.5 47.5q72 0 135 -15t114.5 -48.5t90.5 -88.5t62 -135l-172 -31q-28 91 -89.5 131.5t-142.5 40.5
q-74 0 -134 -34.5t-102 -101.5t-64.5 -165.5t-22.5 -227.5q49 91 138 138.5t204 47.5q96 0 174.5 -31t134 -88t85.5 -137t30 -179zM913 438q0 67 -18 123t-54 96t-89 62.5t-123 22.5q-49 0 -99 -16.5t-90.5 -49t-66 -81.5t-25.5 -114q0 -72 20 -136.5t57.5 -113.5
t90.5 -77.5t119 -28.5q65 0 116.5 22.5t87.5 63.5t55 99t19 128z" />
    <glyph glyph-name="seven" unicode="7" 
d="M1069 1210q-96 -138 -181.5 -285t-150.5 -299.5t-103 -309.5t-38 -316h-188q0 158 40 315.5t107 310.5t155 299t185 279h-737v145h911v-139z" />
    <glyph glyph-name="eight" unicode="8" 
d="M1094 378q0 -84 -28.5 -156.5t-87 -126.5t-149 -84.5t-215.5 -30.5q-124 0 -214.5 30.5t-150 84t-88 126t-28.5 155.5q0 71 23.5 128.5t63 99.5t90 68t104.5 35v4q-59 14 -105.5 45t-78 73t-48 92t-16.5 103q0 68 28.5 130.5t84.5 110.5t139 76.5t192 28.5
q115 0 199.5 -29t140 -77t82.5 -111t27 -131q0 -52 -16.5 -102t-48 -92t-78 -72.5t-107.5 -42.5v-4q61 -10 113 -36.5t90.5 -68.5t60 -98.5t21.5 -127.5zM872 1012q0 47 -13.5 88t-44.5 71t-81 47.5t-123 17.5q-70 0 -119.5 -17.5t-81 -47.5t-45.5 -71t-14 -88q0 -37 11 -78
t40 -75.5t80 -57t131 -22.5q86 0 137 23t78.5 57.5t36 75.5t8.5 77zM907 395q0 45 -14 89.5t-48 80t-91.5 57.5t-143.5 22q-79 0 -134.5 -22t-90 -58t-50.5 -81t-16 -92q0 -59 16 -109.5t51 -87.5t92 -58t138 -21q83 0 138.5 20.5t89.5 58t48.5 89t14.5 112.5z" />
    <glyph glyph-name="nine" unicode="9" 
d="M1087 703q0 -177 -35 -312t-101 -226.5t-160.5 -138t-213.5 -46.5q-81 0 -146 16.5t-116 51.5t-87 91t-58 135l172 27q28 -91 87.5 -133.5t150.5 -42.5q74 0 134 34t102.5 100t67 164t25.5 227q-21 -47 -57.5 -84t-83 -62.5t-100 -39t-109.5 -13.5q-96 0 -173.5 34
t-131.5 95t-83.5 145.5t-29.5 185.5q0 104 31.5 188.5t91.5 144.5t147.5 93t198.5 33q236 0 356.5 -166t120.5 -501zM891 862q0 73 -18.5 138.5t-55 115t-90 79t-123.5 29.5q-65 0 -117 -22.5t-88 -64t-55.5 -99t-19.5 -127.5q0 -66 17.5 -123.5t52.5 -101t87 -68.5t121 -25
q50 0 101.5 17t93 50.5t68 84t26.5 117.5z" />
    <glyph glyph-name="colon" unicode=":" 
d="M496 0v299h235v-299h-235zM496 783v299h235v-299h-235z" />
    <glyph glyph-name="semicolon" unicode=";" 
d="M496 783v299h235v-299h-235zM352 -363l169 662h265l-311 -662h-123z" />
    <glyph glyph-name="less" unicode="&#x3c;" 
d="M116 571v205l995 418v-154l-858 -366l858 -367v-153z" />
    <glyph glyph-name="equal" unicode="=" 
d="M116 856v148h995v-148h-995zM116 344v148h995v-148h-995z" />
    <glyph glyph-name="greater" unicode="&#x3e;" 
d="M116 154v153l858 367l-858 366v154l995 -418v-205z" />
    <glyph glyph-name="question" unicode="?" 
d="M1073 1002q0 -69 -18.5 -121t-49.5 -93t-70.5 -74t-80.5 -62.5t-80.5 -59t-71 -63.5t-51 -75.5t-20.5 -96.5h-175q2 67 21.5 118t50.5 91.5t70 73t79 62t78.5 59t68.5 63.5t48.5 75.5t18.5 94.5q0 55 -20.5 97t-59 70.5t-93 43.5t-122.5 15t-123.5 -19t-96.5 -54.5
t-66 -86t-32 -112.5l-184 12q12 90 49 165.5t100 129.5t151 84.5t200 30.5q108 0 196.5 -24t151.5 -70.5t97 -115t34 -158.5zM448 0v201h195v-201h-195z" />
    <glyph glyph-name="at" unicode="@" 
d="M1189 755q0 -144 -20.5 -263.5t-59.5 -205.5t-96 -134t-129 -48q-30 0 -56 8t-45.5 26.5t-30.5 48.5t-11 74v7.5t0.5 11.5t1 11t0.5 8h-6q-15 -39 -38 -74.5t-52.5 -62.5t-66 -42.5t-78.5 -15.5q-63 0 -106 32.5t-69.5 86t-38 123t-11.5 143.5q0 76 11.5 151t33.5 143
t54.5 126.5t73 101t89.5 66.5t105 24q42 0 73 -13.5t52.5 -37t35.5 -55t23 -67.5h5l32 151h116l-99 -507q-8 -42 -15.5 -82.5t-13 -77t-8.5 -67t-3 -51.5q0 -52 14.5 -70t34.5 -18q40 0 72.5 40t56 112.5t36 173t12.5 221.5q0 129 -26.5 241t-77 195t-124.5 131t-170 48
q-120 0 -213.5 -67t-157 -182.5t-96.5 -271.5t-33 -333q0 -152 29.5 -277t85 -214.5t136.5 -138.5t183 -49q59 0 110 12.5t95.5 33.5t85 50t78.5 62l71 -87q-43 -37 -91.5 -71t-104 -60.5t-118.5 -42t-136 -15.5q-127 0 -229 56.5t-173 160.5t-109.5 251t-38.5 329
q0 209 42 386.5t122.5 307.5t197 203t266.5 73q131 0 228.5 -59t161.5 -159t95.5 -232t31.5 -279zM775 784q0 106 -35 160.5t-94 54.5q-37 0 -69 -22t-58 -59.5t-46 -87.5t-33.5 -106.5t-20.5 -116t-7 -116.5q0 -60 5.5 -111.5t19 -89t35.5 -59t54 -21.5q39 0 74.5 27.5
t64.5 77.5t52 121.5t36 158.5q3 19 7 45t7.5 53t5.5 51.5t2 39.5z" />
    <glyph glyph-name="A" unicode="A" 
d="M1034 0l-138 382h-563l-137 -382h-196l510 1349h217l501 -1349h-194zM701 954q-13 38 -27 77t-25.5 74t-20 61.5t-12.5 38.5q-4 -12 -12 -39t-19.5 -62t-24 -74t-25.5 -76l-151 -423h463z" />
    <glyph glyph-name="B" unicode="B" 
d="M1152 380q0 -103 -42 -175t-113 -117.5t-165 -66.5t-198 -21h-472v1349h412q117 0 209 -19t156 -58.5t97.5 -101.5t33.5 -148q0 -56 -16.5 -106.5t-50 -91t-83.5 -70t-118 -43.5q85 -9 150.5 -37t109.5 -71.5t67 -100t23 -122.5zM878 998q0 107 -75.5 152.5t-226.5 45.5
h-223v-416h225q81 0 138 15.5t93 44t52.5 68.5t16.5 90zM959 397q0 63 -25.5 107t-72 72.5t-111.5 41.5t-145 13h-252v-478h266q73 0 135.5 11.5t108 39.5t71 75t25.5 118z" />
    <glyph glyph-name="C" unicode="C" 
d="M314 681q0 -131 20 -232.5t62 -171.5t107.5 -106t157.5 -36q63 0 113.5 24t90 63t68.5 90t50 105l159 -65q-28 -70 -69 -136.5t-99 -119t-135.5 -84.5t-179.5 -32q-141 0 -243.5 50.5t-170 142.5t-100 221t-32.5 287q0 166 32 294.5t98 216t167 133t239 45.5
q101 0 177 -27.5t131.5 -74t94 -107t63.5 -126.5l-168 -65q-15 46 -41 90t-62.5 78t-85 55t-108.5 21q-89 0 -152.5 -34t-104.5 -101.5t-60 -167t-19 -230.5z" />
    <glyph glyph-name="D" unicode="D" 
d="M1125 688q0 -168 -40 -296.5t-116 -215.5t-186.5 -131.5t-250.5 -44.5h-370v1349h311q158 0 279.5 -38.5t204.5 -119.5t125.5 -206t42.5 -297zM933 688q0 135 -28 231t-85 156.5t-143 89t-203 28.5h-121v-1037h162q212 0 315 133t103 399z" />
    <glyph glyph-name="E" unicode="E" 
d="M162 0v1349h919v-156h-728v-422h668v-154h-668v-461h769v-156h-960z" />
    <glyph glyph-name="F" unicode="F" 
d="M385 1193v-494h676v-158h-676v-541h-191v1349h891v-156h-700z" />
    <glyph glyph-name="G" unicode="G" 
d="M1101 133q-36 -24 -83.5 -51t-105.5 -49.5t-126.5 -37.5t-146.5 -15q-134 0 -233 52.5t-164 145.5t-97 221.5t-32 281.5q0 167 31 295.5t96 216t165 132.5t237 45q100 0 175.5 -26t131 -70.5t93 -105t61.5 -129.5l-171 -56q-38 110 -107.5 170.5t-180.5 60.5
q-90 0 -153 -34.5t-102.5 -102t-57 -167t-17.5 -229.5q0 -268 84.5 -407t256.5 -139q48 0 89.5 8.5t75 20t58 24t37.5 21.5v336h-293v160h479v-572z" />
    <glyph glyph-name="H" unicode="H" 
d="M875 0v623h-522v-623h-191v1349h191v-566h522v566h191v-1349h-191z" />
    <glyph glyph-name="I" unicode="I" 
d="M202 1349h823v-156h-316v-1037h316v-156h-823v156h316v1037h-316v156z" />
    <glyph glyph-name="J" unicode="J" 
d="M986 420q0 -100 -25.5 -181.5t-76 -139t-125.5 -88.5t-173 -31q-171 0 -273 89t-137 281l187 31q10 -64 31 -110.5t50 -76.5t65.5 -44.5t77.5 -14.5q104 0 156.5 71.5t52.5 209.5v777h-311v156h501v-929z" />
    <glyph glyph-name="K" unicode="K" 
d="M1003 0l-487 638l-163 -169v-469h-191v1349h191v-673l572 673h225l-504 -572l581 -777h-224z" />
    <glyph glyph-name="L" unicode="L" 
d="M237 0v1349h191v-1193h672v-156h-863z" />
    <glyph glyph-name="M" unicode="M" 
d="M937 0v868q0 51 0.5 104t2.5 97q2 51 3 100q-17 -55 -34 -108q-14 -45 -30.5 -95t-30.5 -88l-164 -438h-137l-166 438q-6 15 -13 35.5t-14.5 44t-15.5 48t-16 48.5q-18 55 -37 115q1 -48 2 -100q1 -45 1.5 -97.5t0.5 -103.5v-868h-160v1349h237l185 -489
q9 -23 20.5 -61.5t22.5 -76.5q12 -44 25 -93q14 47 26 90q11 37 23 76t21 64l185 490h225v-1349h-162z" />
    <glyph glyph-name="N" unicode="N" 
d="M836 0l-520 1130q4 -43 8 -88q3 -38 5.5 -82.5t2.5 -83.5v-876h-170v1349h222l528 -1138q-5 40 -9 86q-4 39 -6.5 88t-2.5 100v864h172v-1349h-230z" />
    <glyph glyph-name="O" unicode="O" 
d="M1126 681q0 -173 -35 -304t-101 -219.5t-161.5 -133t-215.5 -44.5q-127 0 -223 47t-160 136.5t-96 220t-32 297.5q0 173 34 302t99 215t160.5 129t219.5 43q247 0 379 -173.5t132 -515.5zM925 681q0 270 -79 401.5t-231 131.5q-156 0 -234 -131.5t-78 -401.5t79 -408
t232 -138q163 0 237 140t74 406z" />
    <glyph glyph-name="P" unicode="P" 
d="M1119 945q0 -84 -29.5 -161.5t-90 -137.5t-151.5 -96t-214 -36h-281v-514h-191v1349h460q125 0 218 -29t155 -82t93 -127.5t31 -165.5zM927 942q0 125 -82 189.5t-246 64.5h-246v-531h254q82 0 142.5 21.5t100 58.5t58.5 88t19 109z" />
    <glyph glyph-name="Q" unicode="Q" 
d="M1126 681q0 -147 -25.5 -264.5t-74.5 -203.5t-119.5 -140.5t-160.5 -76.5q41 -126 108 -183t168 -57q28 0 60 4t55 9v-134q-38 -9 -83.5 -15.5t-94.5 -6.5q-85 0 -149.5 25.5t-113 73t-83.5 116.5t-62 156q-112 11 -196 62.5t-140.5 140.5t-84.5 213.5t-28 280.5
q0 173 34 302t99 215t160.5 129t219.5 43q247 0 379 -173.5t132 -515.5zM925 681q0 270 -79 401.5t-231 131.5q-156 0 -234 -131.5t-78 -401.5t79 -408t232 -138q163 0 237 140t74 406z" />
    <glyph glyph-name="R" unicode="R" 
d="M957 0l-366 575h-238v-575h-191v1349h482q120 0 209.5 -25.5t149 -74t89 -117.5t29.5 -156q0 -62 -19.5 -123.5t-61.5 -113t-107 -89.5t-156 -53l400 -597h-220zM929 973q0 223 -304 223h-272v-470h280q83 0 139.5 20t91 53.5t50 78.5t15.5 95z" />
    <glyph glyph-name="S" unicode="S" 
d="M1128 370q0 -85 -31 -156.5t-94.5 -123.5t-161 -81t-231.5 -29q-234 0 -364.5 92t-166.5 266l185 37q12 -55 36 -100t66 -77.5t103 -50.5t146 -18q72 0 131.5 13.5t102 42.5t66.5 74t24 108q0 70 -32.5 114t-85.5 72t-119.5 45.5t-134.5 34.5q-50 13 -101 27.5t-98 34
t-87.5 46t-71 64t-47.5 88t-17 117.5q0 96 36 164.5t99 112t149 63.5t186 20q116 0 197.5 -20.5t138 -61.5t90.5 -101.5t54 -140.5l-188 -33q-11 51 -32.5 91t-57 67t-85.5 41t-118 14q-80 0 -134 -16.5t-87 -45t-47.5 -67.5t-14.5 -84q0 -60 26.5 -97.5t72 -62t106 -40.5
t129.5 -34q55 -14 111 -29.5t107.5 -36.5t96 -49.5t77.5 -69.5t52 -96t19 -128z" />
    <glyph glyph-name="T" unicode="T" 
d="M709 1193v-1193h-190v1193h-443v156h1076v-156h-443z" />
    <glyph glyph-name="U" unicode="U" 
d="M1085 490q0 -137 -29 -234t-88.5 -158.5t-150 -89.5t-212.5 -28q-116 0 -203 26.5t-144.5 85t-86.5 152t-29 228.5v877h191v-851q0 -97 12.5 -166t43 -113t83 -64t132.5 -20q83 0 138.5 20t89.5 64.5t48.5 116.5t14.5 175v838h190v-859z" />
    <glyph glyph-name="V" unicode="V" 
d="M713 0h-198l-505 1349h201l320 -902q16 -45 30.5 -93.5t26.5 -90.5q14 -48 27 -95q12 45 26 93q12 41 27 90t31 96l318 902h201z" />
    <glyph glyph-name="W" unicode="W" 
d="M1018 0h-208l-104 387q-5 19 -12 45t-14.5 55.5t-15 61t-14.5 61.5q-17 70 -34 146q-18 -77 -35 -147q-7 -30 -14.5 -61.5t-15 -61t-14.5 -55t-12 -44.5l-106 -387h-208l-211 1349h189l109 -835q8 -65 13.5 -127t10.5 -111q5 -57 9 -108q16 69 32 136q7 29 14 59.5
t14.5 60.5t14.5 57.5t13 50.5l109 399h175l109 -399q6 -22 13 -50t14.5 -57.5t14.5 -60t14 -59.5q16 -67 32 -137q1 0 4 34t8 85t11 112t12 115l104 835h189z" />
    <glyph glyph-name="X" unicode="X" 
d="M614 836l333 513h205l-435 -644l476 -705h-205l-374 573l-373 -573h-205l476 705l-435 644h205z" />
    <glyph glyph-name="Y" unicode="Y" 
d="M708 584v-584h-188v584l-484 765h205l374 -611l372 611h205z" />
    <glyph glyph-name="Z" unicode="Z" 
d="M1155 0h-1082v143l818 1050h-745v156h962v-139l-818 -1054h865v-156z" />
    <glyph glyph-name="bracketleft" unicode="[" 
d="M410 -425v1909h547v-139h-367v-1631h367v-139h-547z" />
    <glyph glyph-name="backslash" unicode="\" 
d="M932 -20l-817 1504h178l821 -1504h-182z" />
    <glyph glyph-name="bracketright" unicode="]" 
d="M270 -425v139h367v1631h-367v139h547v-1909h-547z" />
    <glyph glyph-name="asciicircum" unicode="^" 
d="M940 442l-329 803l-326 -803h-152l378 907h203l380 -907h-154z" />
    <glyph glyph-name="underscore" unicode="_" 
d="M-5 -220v96h1238v-96h-1238z" />
    <glyph glyph-name="grave" unicode="`" 
d="M702 1201l-300 230v29h197l227 -239v-20h-124z" />
    <glyph glyph-name="a" unicode="a" 
d="M1101 111q15 0 30 2t29 5v-112q-34 -8 -67.5 -12t-71.5 -4q-51 0 -87.5 13.5t-59.5 41t-35 68t-15 94.5h-6q-28 -52 -62 -94t-78 -71.5t-101 -45.5t-131 -16q-158 0 -238 86t-80 236q0 107 39.5 175.5t103.5 107.5t145.5 54.5t165.5 16.5l236 4v59q0 67 -13.5 114t-41 76
t-69.5 42.5t-98 13.5q-50 0 -90.5 -7.5t-69.5 -27t-47.5 -53t-24.5 -84.5l-188 17q10 64 37.5 117.5t77.5 92.5t125.5 60.5t182.5 21.5q200 0 300.5 -93.5t100.5 -270.5v-466q0 -80 21 -120.5t80 -40.5zM492 117q83 0 144 31.5t101.5 79.5t60.5 106t20 111v89l-190 -4
q-55 -1 -110.5 -8.5t-100 -31.5t-72.5 -69.5t-28 -121.5q0 -82 44.5 -132t130.5 -50z" />
    <glyph glyph-name="b" unicode="b" 
d="M1090 546q0 -284 -101.5 -425t-290.5 -141q-116 0 -201 43t-133 141h-2q0 -26 -1 -53.5t-2.5 -50.5t-3 -39.5t-2.5 -20.5h-174q1 9 2 30.5t2 51.5t1.5 66t0.5 75v1261h180v-423q0 -29 -0.5 -57.5t-1.5 -50.5q-1 -26 -2 -49h4q48 105 132.5 152.5t201.5 47.5
q195 0 293 -138.5t98 -419.5zM904 540q0 112 -15 192.5t-46.5 132t-79 76t-113.5 24.5t-119 -22.5t-89.5 -74t-56.5 -136t-20 -208.5q0 -119 20 -198t56.5 -126.5t89 -67t117.5 -19.5q63 0 111 23t80 74t48.5 132.5t16.5 197.5z" />
    <glyph glyph-name="c" unicode="c" 
d="M130 542q0 163 43 271t113.5 172t160.5 90.5t185 26.5q98 0 175 -25t132.5 -68.5t90.5 -102.5t48 -127l-192 -14q-16 91 -80 143.5t-182 52.5q-86 0 -144.5 -27.5t-94 -80t-51 -130t-15.5 -177.5t15.5 -179.5t51 -134.5t94 -84t143.5 -29q108 0 179 53t88 162l190 -12
q-9 -67 -43 -129t-91 -109t-136 -75.5t-179 -28.5q-137 0 -232.5 43t-155 118.5t-86.5 178t-27 222.5z" />
    <glyph glyph-name="d" unicode="d" 
d="M862 174q-49 -105 -130 -152.5t-202 -47.5q-202 0 -297 139t-95 419q0 566 392 566q121 0 202.5 -43t130.5 -141h2q0 5 -0.5 26t-0.5 46t-0.5 47.5t-0.5 31.5v419h180v-1261q0 -39 0.5 -75t1.5 -66t2 -51.5t2 -30.5h-172q-1 4 -3 22t-3.5 43t-2.5 54t-1 55h-5zM324 538
q0 -112 14.5 -192t45 -132t78.5 -76.5t115 -24.5q69 0 122.5 24t90 76.5t55 136.5t18.5 204q0 116 -18.5 194.5t-54.5 126.5t-89 69t-122 21q-64 0 -112 -23t-79.5 -74t-47.5 -132.5t-16 -197.5z" />
    <glyph glyph-name="e" unicode="e" 
d="M322 503q0 -85 19 -156.5t57 -123t94.5 -80t130.5 -28.5q55 0 101.5 12.5t83.5 34.5t62 52.5t37 66.5l158 -45q-16 -45 -48 -90.5t-85 -82t-129 -60t-180 -23.5q-115 0 -206 36t-154 107t-96.5 177.5t-33.5 247.5q0 156 39.5 262t106.5 171t154.5 93t183.5 28
q131 0 221.5 -42t147.5 -117.5t82.5 -181.5t25.5 -234v-24h-772zM619 969q-46 0 -96.5 -14.5t-93.5 -51.5t-72.5 -100.5t-32.5 -161.5h584q-8 94 -34 157t-64.5 101t-87.5 54t-103 16z" />
    <glyph glyph-name="f" unicode="f" 
d="M580 940v-940h-180v940h-262v142h262v25q0 101 22.5 172.5t72.5 117t129.5 66.5t193.5 21q29 0 69 -1.5t80 -4.5t75.5 -7t56.5 -8v-145q-18 3 -54 6t-75.5 5.5t-75.5 4t-55 1.5q-66 0 -115 -10t-81 -37t-47.5 -74t-15.5 -122v-10h491v-142h-491z" />
    <glyph glyph-name="g" unicode="g" 
d="M615 -424q-90 0 -158.5 19t-118 54.5t-80 84.5t-43.5 109l184 25q17 -75 73.5 -115.5t148.5 -40.5q57 0 102.5 17t78 54.5t50 97.5t17.5 146v194h-2q-19 -40 -48.5 -78t-71 -67t-96.5 -46.5t-127 -17.5q-102 0 -174 33t-118 100t-67.5 168t-21.5 236q0 131 21.5 233
t69 172.5t123.5 107.5t186 37q113 0 196.5 -52.5t128.5 -149.5h3q0 25 1.5 56t3 58.5t4 47.5t3.5 23h171q-1 -9 -2 -30.5t-2 -51.5t-1.5 -66.5t-0.5 -75.5v-826q0 -227 -106 -341.5t-327 -114.5zM869 551q0 113 -24 192t-63.5 128.5t-90 71.5t-103.5 22q-67 0 -116 -22.5
t-81 -72t-47 -128t-15 -191.5q0 -117 15 -195t46.5 -125t80 -66.5t114.5 -19.5q53 0 104 21.5t91 69.5t64.5 125.5t24.5 189.5z" />
    <glyph glyph-name="h" unicode="h" 
d="M185 1484h181v-390q0 -50 -3 -100.5t-6 -96.5h3q24 47 56 85t73 64.5t93.5 41t116.5 14.5q83 0 148 -22t110 -68t68.5 -118t23.5 -173v-721h-181v695q0 80 -16.5 131.5t-46 82t-69.5 42.5t-88 12q-59 0 -110.5 -22.5t-90 -65t-60.5 -105t-22 -143.5v-627h-180v1484z" />
    <glyph glyph-name="i" unicode="i" 
d="M745 142h380v-142h-982v142h422v798h-319v142h499v-940zM545 1292v192h200v-192h-200z" />
    <glyph glyph-name="j" unicode="j" 
d="M836 -28q0 -109 -35.5 -184.5t-94.5 -123t-137 -68.5t-164 -21q-41 0 -82 3.5t-79 9.5t-70.5 13.5t-56.5 16.5v140q22 -5 52 -11t66 -11t75.5 -8.5t79.5 -3.5q56 0 104.5 14t84.5 44.5t56.5 78t20.5 114.5v965h-407v142h587v-1110zM636 1292v192h200v-192h-200z" />
    <glyph glyph-name="k" unicode="k" 
d="M914 0l-366 499l-132 -98v-401h-180v1484h180v-927l475 525h211l-439 -465l462 -617h-211z" />
    <glyph glyph-name="l" unicode="l" 
d="M736 142h380v-142h-982v142h422v1200h-289v142h469v-1342z" />
    <glyph glyph-name="m" unicode="m" 
d="M531 0v686q0 79 -6 132t-19.5 85.5t-35 46t-53.5 13.5q-33 0 -59 -25.5t-45 -72t-29 -112t-10 -146.5v-607h-169v851q0 34 -0.5 71.5t-1.5 71t-2 57.5t-2 31h149q1 -5 2 -25.5t2 -47t1.5 -54.5t0.5 -48h2q13 39 31 74.5t43.5 62.5t60.5 42.5t81 15.5q88 0 131.5 -48
t62.5 -148h2q18 47 39.5 83.5t49.5 61.5t64 38t83 13q61 0 103 -22t68 -68t37.5 -118t11.5 -173v-721h-168v686q0 79 -6 132t-19.5 85.5t-35 46t-53.5 13.5q-66 0 -104.5 -84t-38.5 -252v-627h-168z" />
    <glyph glyph-name="n" unicode="n" 
d="M868 0v695q0 80 -16.5 131.5t-46 82t-69.5 42.5t-88 12q-59 0 -110.5 -22.5t-90 -65t-60.5 -105t-22 -143.5v-627h-180v851q0 34 -0.5 71.5t-1.5 71t-2 57.5t-2 31h170q1 -5 2 -27t2.5 -50.5t2.5 -58t1 -49.5h3q24 47 56.5 85t75 64.5t95.5 41t119 14.5q83 0 147 -22
t107.5 -68t66 -118t22.5 -173v-721h-181z" />
    <glyph glyph-name="o" unicode="o" 
d="M1097 542q0 -142 -33.5 -247.5t-96.5 -175.5t-153.5 -104.5t-204.5 -34.5q-109 0 -197.5 34t-151 104t-96.5 175.5t-34 248.5q0 279 126.5 419.5t358.5 140.5q244 0 363 -139t119 -421zM908 542q0 126 -21.5 208t-60 131t-91.5 68.5t-117 19.5q-65 0 -120 -20.5
t-94.5 -70t-62 -131.5t-22.5 -205q0 -126 23.5 -208.5t63 -131.5t92 -69t109.5 -20q65 0 120.5 19.5t95.5 68.5t62.5 132t22.5 209z" />
    <glyph glyph-name="p" unicode="p" 
d="M1090 546q0 -123 -20 -227t-66 -179t-121 -117.5t-185 -42.5q-55 0 -105 10t-93 32t-76.5 57t-56.5 85h-5q1 -2 1.5 -17.5t1 -38.5t1 -52t0.5 -58v-423h-181v1283q0 40 -0.5 77t-1.5 66.5t-2 50.5t-2 30h175q1 -3 2.5 -21.5t3 -44.5t3 -56t1.5 -56h4q25 52 56.5 90
t71.5 62.5t90 36t112 11.5q110 0 185 -40t121 -113.5t66 -176.5t20 -228zM904 546q0 100 -12 178t-41.5 131.5t-78 81.5t-121.5 28q-59 0 -111 -18.5t-90.5 -67t-61 -134.5t-22.5 -221q0 -115 18.5 -193.5t54.5 -127t89 -69.5t121 -21q73 0 122 28.5t78.5 83.5t42 136
t12.5 185z" />
    <glyph glyph-name="q" unicode="q" 
d="M529 1098q66 0 117 -11t90.5 -34t70 -57.5t54.5 -81.5h2q0 25 1.5 53.5t3 53t4 42t3.5 20.5h175q-1 -9 -2 -29t-2 -54t-1.5 -83t-0.5 -116v-1226h-181v439q0 26 0.5 55t1.5 55q1 30 2 58h-2q-25 -51 -56.5 -90t-72 -65.5t-91 -39.5t-115.5 -13q-202 0 -297 140.5
t-95 417.5q0 281 97.5 423.5t293.5 142.5zM863 554q0 119 -20 198t-57 126t-89.5 67t-117.5 20q-68 0 -116.5 -25.5t-79 -78t-45 -133t-14.5 -190.5q0 -106 14 -185.5t44 -132.5t78 -80t117 -27q59 0 111 19.5t91 69t61.5 135t22.5 217.5z" />
    <glyph glyph-name="r" unicode="r" 
d="M1045 918q-47 8 -98.5 13.5t-113.5 5.5q-84 0 -151 -34t-113 -92.5t-70.5 -136.5t-24.5 -166v-508h-180v701q0 56 -6 114t-14 109.5t-17 92.5t-15 65h171q7 -24 14.5 -55t14.5 -64.5t12 -67.5t7 -63h5q28 62 59 112t73.5 85t100.5 54t140 19q56 0 110 -5t96 -12v-167z
" />
    <glyph glyph-name="s" unicode="s" 
d="M1060 309q0 -76 -29.5 -137t-85.5 -103.5t-137.5 -65.5t-186.5 -23q-94 0 -169.5 13.5t-132.5 44.5t-95.5 82.5t-56.5 127.5l159 31q12 -55 38.5 -87.5t64 -49.5t86.5 -22.5t106 -5.5q58 0 107.5 8.5t85.5 29t56.5 53t20.5 80.5q0 50 -25.5 80.5t-69.5 51.5t-104.5 36
t-131.5 34q-64 17 -127 37t-112.5 52.5t-80 82.5t-30.5 127q0 147 106 230t307 83q79 0 148 -14.5t123 -46t90.5 -81t50.5 -118.5l-162 -20q-7 45 -30 73t-56.5 44.5t-75.5 22.5t-88 6q-245 0 -245 -151q0 -46 21.5 -74.5t60.5 -47.5t93 -32.5t119 -30.5q65 -16 133.5 -37
t125 -56t93 -89.5t36.5 -137.5z" />
    <glyph glyph-name="t" unicode="t" 
d="M190 940v142h170l58 282h120v-282h432v-142h-432v-652q0 -79 42.5 -117t139.5 -38q40 0 82.5 3.5t82 8.5t74 11t58.5 11v-137q-22 -6 -57 -14t-78.5 -15t-94.5 -12t-105 -5q-162 0 -243 68.5t-81 216.5v671h-168z" />
    <glyph glyph-name="u" unicode="u" 
d="M365 1082v-686q0 -79 11.5 -132t38 -85.5t69 -46t105.5 -13.5q64 0 115.5 22.5t88 65t56 105t19.5 143.5v627h181v-851q0 -34 0.5 -71.5t1.5 -71t2 -57.5t2 -31h-170q-1 5 -2 27t-2.5 50.5t-2.5 58t-1 49.5h-3q-26 -47 -57 -85t-72 -64.5t-94 -41t-123 -14.5
q-90 0 -155 22t-107 68t-61.5 118.5t-19.5 172.5v721h180z" />
    <glyph glyph-name="v" unicode="v" 
d="M715 0h-213l-433 1082h202l268 -704q8 -22 17 -53.5t19 -65.5t18.5 -65.5t14.5 -52.5q6 21 15.5 52.5t19.5 64.5t20.5 64.5t18.5 53.5l276 706h201z" />
    <glyph glyph-name="w" unicode="w" 
d="M1018 0h-204l-143 471q-8 27 -18 61.5t-19 66.5q-11 37 -20 74q-9 -37 -20 -73q-9 -31 -19 -66.5t-20 -66.5l-148 -467h-203l-183 1082h178l93 -607q3 -24 8.5 -66.5t11 -90.5t9.5 -94t4 -75q11 45 22 86q9 35 19 71.5t17 56.5l135 424h193l130 -425q6 -20 15.5 -55.5
t18.5 -70.5q11 -41 21 -87q0 30 4 75t10 92.5t12 90.5t9 68l101 607h176z" />
    <glyph glyph-name="x" unicode="x" 
d="M932 0l-321 444l-323 -444h-194l415 556l-397 526h199l300 -421l298 421h201l-397 -524l420 -558h-201z" />
    <glyph glyph-name="y" unicode="y" 
d="M705 0q-37 -98 -77 -176.5t-89 -134t-109 -85t-138 -29.5q-34 0 -63 2t-61 9v135q19 -3 43 -4.5t41 -1.5q79 0 148.5 59t117.5 188l18 49l-470 1071h192l264 -642q11 -27 27 -66.5t31 -78t26.5 -69.5t13.5 -40q3 11 14.5 41.5t26.5 68t30.5 77t27.5 68.5l252 641h190z
" />
    <glyph glyph-name="z" unicode="z" 
d="M147 0v137l681 806h-641v139h844v-137l-682 -806h719v-139h-921z" />
    <glyph glyph-name="braceleft" unicode="{" 
d="M796 -425q-65 0 -119 22t-93 62t-60.5 95.5t-21.5 123.5v351q0 63 -23.5 106.5t-62.5 70.5t-88.5 40t-100.5 15v137q51 2 100.5 15t88.5 40.5t62.5 70.5t23.5 105v352q0 70 21.5 126t60.5 95.5t93 60.5t119 21h265v-139h-213q-45 0 -77.5 -10.5t-53.5 -33.5t-30.5 -60
t-9.5 -91v-346q0 -57 -20.5 -103t-53.5 -80.5t-74.5 -56.5t-82.5 -32v-2q43 -10 84.5 -32.5t74 -56.5t52.5 -80.5t20 -104.5v-347q0 -106 40 -150.5t131 -44.5h213v-139h-265z" />
    <glyph glyph-name="bar" unicode="|" 
d="M531 -425v1909h166v-1909h-166z" />
    <glyph glyph-name="braceright" unicode="}" 
d="M167 -425v139h213q91 0 131.5 44.5t40.5 150.5v347q0 58 20 104.5t52.5 80.5t73.5 56.5t84 32.5v2q-41 10 -82 32t-74 56.5t-53.5 80.5t-20.5 103v346q0 54 -10 91t-31 60t-53.5 33.5t-77.5 10.5h-213v139h265q65 0 119 -21t93 -60.5t60.5 -95.5t21.5 -126v-352
q0 -62 23.5 -105t62.5 -70.5t88.5 -40.5t100.5 -15v-137q-51 -2 -100.5 -15t-88.5 -40t-62.5 -70.5t-23.5 -106.5v-351q0 -68 -21.5 -123.5t-60.5 -95.5t-93 -62t-119 -22h-265z" />
    <glyph glyph-name="asciitilde" unicode="~" 
d="M371 807q41 0 80.5 -6.5t78 -16.5t76 -23t74.5 -26q21 -7 46 -15t50.5 -15t51 -11t48.5 -4q69 0 130.5 25t113.5 67v-149q-31 -22 -61 -37.5t-60.5 -25t-64.5 -13.5t-74 -4q-69 0 -141.5 22t-145.5 48q-129 45 -217 45q-38 0 -70.5 -6t-62.5 -17.5t-58 -27.5t-57 -37v143
q50 38 116 61t147 23z" />
    <glyph glyph-name="exclamdown" unicode="&#xa1;" 
d="M539 685h148l24 -951h-196zM713 1082v-201h-194v201h194z" />
    <glyph glyph-name="cent" unicode="&#xa2;" 
d="M635 269q56 0 102.5 14t82.5 41t59.5 67.5t32.5 94.5l182 -12q-9 -62 -38 -120t-78.5 -104t-119.5 -77t-160 -39v-195h-128v195q-110 8 -192 49.5t-136.5 110t-81.5 160.5t-27 202q0 118 29 213.5t85 164.5t137.5 110.5t185.5 50.5v184h128v-184q86 -7 152.5 -34.5
t115 -70.5t79 -98.5t43.5 -118.5l-185 -14q-17 91 -82.5 145t-187.5 54q-156 0 -236.5 -100.5t-80.5 -289.5q0 -198 84 -298.5t235 -100.5z" />
    <glyph glyph-name="sterling" unicode="&#xa3;" 
d="M1171 240q-9 -43 -25 -86t-43 -77t-67.5 -55.5t-98.5 -21.5h-881v154q43 22 79 46t61.5 59t40 86t14.5 126v141h-186v142h186v220q0 92 25.5 165.5t77.5 124.5t131.5 78.5t187.5 27.5q74 0 137 -14.5t113.5 -43.5t86.5 -72t54 -100q1 0 -6 -3t-19 -7t-27.5 -9t-32.5 -10
q-39 -12 -89 -28q-22 63 -80.5 95t-136.5 32q-122 0 -182 -57.5t-60 -182.5v-216h408v-142h-408v-139q0 -59 -7.5 -107t-25.5 -86.5t-48 -68.5t-74 -53h600q59 0 87.5 26.5t39.5 79.5z" />
    <glyph glyph-name="currency" unicode="&#xa4;" 
d="M182 684q0 71 20.5 134.5t57.5 117.5l-100 100l104 103l99 -101q54 39 117.5 60.5t136.5 21.5q71 0 134 -21t117 -59l97 97l104 -105l-96 -96q37 -54 58.5 -117.5t21.5 -134.5t-22 -135t-60 -117l100 -100l-102 -105l-101 101q-54 -37 -117 -57.5t-134 -20.5
q-72 0 -136 21t-116 59l-105 -105l-102 105l102 102q-37 54 -57.5 117.5t-20.5 134.5zM336 686q0 -58 22.5 -109t60.5 -89t89 -60t109 -22q57 0 108 22t89.5 60t60.5 89t22 109t-22 109t-60.5 89.5t-89.5 60.5t-108 22q-58 0 -109 -22t-89 -60.5t-60.5 -89.5t-22.5 -109z
" />
    <glyph glyph-name="yen" unicode="&#xa5;" 
d="M764 679h321v-142h-383v-137h383v-144h-383v-256h-178v256h-381v144h381l2 137h-383v142h320l-411 670h199l361 -617l365 617h199z" />
    <glyph glyph-name="brokenbar" unicode="&#xa6;" 
d="M531 676v778h166v-778h-166zM531 -455v779h166v-779h-166z" />
    <glyph glyph-name="section" unicode="&#xa7;" 
d="M632 1484q79 0 148 -15t123 -46.5t90.5 -80.5t51.5 -118l-161 -20q-8 45 -31 75.5t-56.5 49t-76 27t-88.5 8.5q-125 0 -189.5 -44.5t-64.5 -115.5q0 -45 25 -77t66.5 -55t96 -39t113.5 -30q68 -16 137.5 -39t125.5 -59.5t91 -89.5t35 -129q0 -45 -14 -88.5t-41.5 -80
t-68.5 -64t-95 -40.5q49 -21 88.5 -46.5t67 -57.5t42.5 -72.5t15 -91.5q0 -73 -29 -131.5t-85 -100t-138 -63.5t-189 -22q-93 0 -170 13.5t-135.5 45.5t-98 84t-58.5 129l161 31q12 -55 39.5 -90.5t66.5 -56t88.5 -28.5t106.5 -8q58 0 109 10.5t89.5 33t60.5 56.5t22 81
q0 54 -28.5 90.5t-76 62t-109 43t-126.5 33.5q-65 15 -130.5 38t-117.5 59.5t-84.5 89.5t-32.5 126q0 45 16 86.5t45.5 77t71.5 62t95 41.5q-42 14 -79.5 37t-66 55t-45 72t-16.5 88q0 139 105.5 216.5t308.5 77.5zM910 663q0 48 -26.5 82.5t-70.5 60t-100.5 43t-117.5 31.5
q-58 -3 -102.5 -19.5t-74.5 -42.5t-45.5 -60.5t-15.5 -73.5q0 -46 24.5 -79t65.5 -57t95 -41t114 -32q54 1 100.5 13t80.5 35.5t53.5 58.5t19.5 81z" />
    <glyph glyph-name="dieresis" unicode="&#xa8;" 
d="M729 1219v184h163v-184h-163zM335 1219v184h165v-184h-165z" />
    <glyph glyph-name="copyright" unicode="&#xa9;" 
d="M398 763q0 -72 14 -132t42 -103t70 -67t98 -24q41 0 72.5 13.5t55 36t40 50.5t28.5 56l115 -35q-19 -43 -45 -83.5t-63 -72t-86.5 -50.5t-116.5 -19q-90 0 -156.5 32t-110 89t-65 136t-21.5 173q0 98 21.5 176t64.5 133.5t108 85t152 29.5q67 0 116.5 -18t85.5 -47.5
t60.5 -67t40.5 -76.5l-114 -33q-10 26 -26 51t-39 44t-53 30.5t-69 11.5q-58 0 -99.5 -23t-68 -64.5t-39 -100.5t-12.5 -131zM1197 761q0 -187 -45.5 -323.5t-124.5 -225.5t-185.5 -131.5t-227.5 -42.5q-120 0 -226 42.5t-185.5 131.5t-125.5 225.5t-46 323.5t46 323.5
t125 225t185 131.5t227 43t227.5 -43t185.5 -131.5t124.5 -225t45.5 -323.5zM1105 761q0 167 -38.5 286t-105.5 195t-156 111.5t-191 35.5q-101 0 -190 -35.5t-155 -111.5t-104.5 -195t-38.5 -286q0 -168 38.5 -287.5t104.5 -195.5t155 -111t190 -35q102 0 191 35t156 111
t105.5 195.5t38.5 287.5z" />
    <glyph glyph-name="ordfeminine" unicode="&#xaa;" 
d="M206 870q0 69 29 115t78.5 74t114.5 40t136 13l191 4v43q0 93 -47 137.5t-133 44.5q-84 0 -130 -34t-57 -111l-149 10q8 47 32 88t66 72t102.5 48.5t139.5 17.5q153 0 236 -67t83 -200v-291q0 -58 15.5 -88t58.5 -30q12 0 26 2.5t23 5.5v-94q-23 -6 -51 -9.5t-51 -3.5
q-82 0 -119.5 42.5t-40.5 117.5h-4q-43 -77 -116 -121.5t-175 -44.5q-121 0 -189.5 57t-68.5 162zM353 890q0 -28 9 -53t28 -44t47.5 -30t67.5 -11q59 0 105 22.5t78.5 56.5t49.5 74.5t17 77.5v51l-154 -4q-50 -1 -95 -7.5t-79 -21.5t-54 -41.5t-20 -69.5z" />
    <glyph glyph-name="guillemotleft" unicode="&#xab;" 
d="M940 141l-338 365v63l338 371h178v-31l-338 -372l340 -367v-29h-180zM463 141l-336 365v63l336 371h177v-31l-335 -372l337 -367v-29h-179z" />
    <glyph glyph-name="logicalnot" unicode="&#xac;" 
d="M966 180v428h-850v146h995v-574h-145z" />
    <glyph glyph-name="registered" unicode="&#xae;" 
d="M1197 761q0 -187 -45.5 -323.5t-124.5 -225.5t-185.5 -131.5t-227.5 -42.5q-120 0 -226 42.5t-185.5 131.5t-125.5 225.5t-46 323.5t46 323.5t125 225t185 131.5t227 43t227.5 -43t185.5 -131.5t124.5 -225t45.5 -323.5zM1105 761q0 167 -38.5 286t-105.5 195t-156 111.5
t-191 35.5q-101 0 -190 -35.5t-155 -111.5t-104.5 -195t-38.5 -286q0 -168 38.5 -287.5t104.5 -195.5t155 -111t190 -35q102 0 191 35t156 111t105.5 195.5t38.5 287.5zM815 343l-199 336h-161v-336h-127v831h307q142 0 217.5 -63t75.5 -174q0 -102 -52 -163.5t-137 -80.5
l221 -350h-145zM801 935q0 69 -47.5 105t-128.5 36h-170v-301h182q80 0 122 42.5t42 117.5z" />
    <glyph glyph-name="macron" unicode="&#xaf;" 
d="M-5 1522v96h1238v-96h-1238z" />
    <glyph glyph-name="degree" unicode="&#xb0;" 
d="M901 1085q0 -59 -22.5 -111t-61.5 -90.5t-91.5 -61t-111.5 -22.5t-111 22.5t-91 61t-62 90.5t-23 111q0 60 23 112t62 90.5t91 60.5t111 22t111.5 -22t91.5 -60.5t61.5 -90.5t22.5 -112zM792 1085q0 38 -13.5 70.5t-37.5 57t-56.5 38.5t-70.5 14q-37 0 -69.5 -14
t-56.5 -38.5t-38 -57t-14 -70.5q0 -37 14 -69.5t38 -57t56.5 -39t69.5 -14.5q38 0 70.5 14.5t56.5 39t37.5 57t13.5 69.5z" />
    <glyph glyph-name="plusminus" unicode="&#xb1;" 
d="M687 680v-395h-147v395h-424v145h424v394h147v-394h424v-145h-424zM116 0v145h995v-145h-995z" />
    <glyph glyph-name="uni00B2" unicode="&#xb2;" 
d="M314 563l-2 103q27 61 71 108.5t94 87.5t101.5 75.5t92.5 72t67 77.5t26 91q0 62 -35.5 99.5t-109.5 37.5q-68 0 -112 -36.5t-52 -104.5l-133 8q6 51 29 94.5t61 75.5t92 50.5t121 18.5q131 0 203.5 -63.5t72.5 -175.5q0 -61 -27 -110t-69.5 -90t-94 -77.5t-101 -73
t-91 -75.5t-63.5 -86h459l2 -107h-602z" />
    <glyph glyph-name="uni00B3" unicode="&#xb3;" 
d="M921 795q0 -116 -77.5 -180t-219.5 -64q-87 0 -145 19.5t-94.5 51.5t-54.5 72.5t-24 83.5l136 13q9 -67 53 -101.5t129 -34.5q77 0 118.5 36t41.5 112q0 45 -18.5 72t-46.5 41.5t-61.5 19t-62.5 4.5h-61v109h57q29 0 59.5 6.5t55.5 22t41 42t16 66.5q0 60 -37 94.5
t-108 34.5q-68 0 -110 -35t-48 -100l-135 12q7 58 32 101t64.5 71.5t91 42.5t109.5 14q69 0 121 -16.5t87 -46t52.5 -69t17.5 -85.5q0 -75 -43 -130t-133 -75v-2q52 -5 89.5 -23.5t61.5 -45.5t35 -61t11 -72z" />
    <glyph glyph-name="acute" unicode="&#xb4;" 
d="M402 1201v20l227 239h197v-29l-300 -230h-124z" />
    <glyph glyph-name="mu" unicode="&#xb5;" 
d="M916 0q-1 6 -2.5 30.5t-3 55.5t-3 62.5t-1.5 50.5h-4q-53 -109 -136.5 -164t-197.5 -55q-82 0 -146 32t-96 90h-4q3 -32 3.5 -63.5t0.5 -58.5v-373h-182v1475h182v-644q0 -69 13.5 -127t45 -100.5t82 -66t123.5 -23.5q67 0 123 26t97 71.5t64 108.5t23 138v617h181v-849
q0 -34 0.5 -72t1.5 -71.5t2 -58t2 -31.5h-168z" />
    <glyph glyph-name="paragraph" unicode="&#xb6;" 
d="M951 1227v-1551h-132v1551h-197v-1551h-133v958q-80 0 -146.5 22.5t-114.5 66.5t-74.5 111t-26.5 155q0 84 25 150.5t72.5 113t116.5 71.5t156 25h583v-122h-129z" />
    <glyph glyph-name="periodcentered" unicode="&#xb7;" 
d="M496 420v299h235v-299h-235z" />
    <glyph glyph-name="cedilla" unicode="&#xb8;" 
d="M483 -258q0 -42 -15 -76.5t-47.5 -59t-84.5 -37.5t-127 -13q-20 0 -42.5 0.5t-47.5 3.5v98q50 -6 86 -6q41 0 69.5 6.5t45.5 17.5t24.5 27t7.5 35q0 40 -30.5 61t-102.5 21h-28.5t-28.5 -2l65 182h107l-39 -100q94 -3 141 -44.5t47 -113.5z" />
    <glyph glyph-name="uni00B9" unicode="&#xb9;" 
d="M291 563v107h265v610q-13 -26 -40.5 -47t-64.5 -36t-80 -23.5t-86 -8.5v109q48 0 91.5 9t80 26.5t64.5 42.5t45 58h121v-740h236v-107h-632z" />
    <glyph glyph-name="ordmasculine" unicode="&#xba;" 
d="M1002 1042q0 -87 -24.5 -158.5t-73.5 -123.5t-122 -80.5t-171 -28.5q-93 0 -165 28.5t-120.5 80.5t-74 123.5t-25.5 158.5q0 84 24 155.5t72.5 123.5t121.5 81.5t171 29.5q103 0 176.5 -29t120 -81t68.5 -123.5t22 -156.5zM853 1042q0 151 -60 218t-174 67
q-116 0 -178.5 -68t-62.5 -217q0 -76 17 -130.5t47.5 -89t73 -50.5t93.5 -16q117 0 180.5 66.5t63.5 219.5z" />
    <glyph glyph-name="guillemotright" unicode="&#xbb;" 
d="M762 141h-178v29l338 367l-336 372v31h176l338 -371v-63zM287 141h-180v29l338 367l-336 372v31h178l335 -371v-63z" />
    <glyph glyph-name="onequarter" unicode="&#xbc;" 
d="M63 589v107h135v513q-13 -26 -36.5 -44t-49 -29.5t-49 -16.5t-36.5 -5v119q18 0 42 6t49.5 19.5t49 35.5t40.5 55h121v-653h116v-107h-382zM322 0h-118l703 1349h115zM1107 162v-161h-127v161h-375v99l361 502h141v-500h122v-101h-122zM981 635q-6 -9 -16.5 -24.5
t-22.5 -32.5t-23.5 -33t-18.5 -26l-185 -256h265v260v29v31.5t0.5 29t0.5 22.5z" />
    <glyph glyph-name="onehalf" unicode="&#xbd;" 
d="M53 589v107h135v513q-13 -26 -36.5 -44t-49 -29.5t-49 -16.5t-36.5 -5v119q18 0 42 6t49.5 19.5t49 35.5t40.5 55h121v-653h116v-107h-382zM306 0h-118l703 1349h115zM678 1v97q24 55 61 97.5t79 78.5t84 67.5t76 63.5t55 67.5t21 79.5q0 57 -25.5 89t-85.5 32
q-61 0 -90.5 -31t-37.5 -92l-130 5q6 47 25.5 87t52 69t78.5 45.5t107 16.5q120 0 180.5 -56t60.5 -159q0 -55 -23 -99.5t-58.5 -82t-78.5 -70t-84 -64t-75 -64t-50 -70.5h380v-107h-522z" />
    <glyph glyph-name="threequarters" unicode="&#xbe;" 
d="M526 794q0 -54 -19.5 -95.5t-53.5 -70t-81 -43t-103 -14.5q-64 0 -110 18.5t-77 48.5t-48 68t-23 77l136 13q9 -60 41.5 -90.5t80.5 -30.5q54 0 87 30t33 95q0 37 -12.5 60.5t-33 36.5t-47.5 18t-56 5h-41v109h37q68 0 100 28.5t32 94.5q0 53 -27 78t-68 25
q-45 0 -78 -31.5t-39 -88.5l-135 12q7 54 29 94t56 67t76.5 40t90.5 13q58 0 101.5 -15.5t72.5 -43t43.5 -64.5t14.5 -79q0 -66 -33.5 -108.5t-102.5 -68.5v-2q82 -18 119.5 -68t37.5 -118zM347 0h-118l703 1349h115zM1107 162v-161h-127v161h-375v99l361 502h141v-500h122
v-101h-122zM981 635q-6 -9 -16.5 -24.5t-22.5 -32.5t-23.5 -33t-18.5 -26l-185 -256h265v260v29v31.5t0.5 29t0.5 22.5z" />
    <glyph glyph-name="questiondown" unicode="&#xbf;" 
d="M153 79q0 69 18.5 121t49.5 93t70.5 74t80.5 62.5t80.5 59t71 63.5t51 75.5t20.5 96.5h175q-2 -67 -21.5 -118t-50.5 -91.5t-70 -73t-79 -62t-78.5 -59t-68.5 -63.5t-48.5 -75.5t-18.5 -94.5q0 -55 20.5 -97t59 -70.5t93 -43.5t122.5 -15t123.5 19t96.5 54.5t66 86
t32 112.5l184 -12q-12 -90 -49 -165.5t-100 -129.5t-150.5 -84.5t-200.5 -30.5q-108 0 -196.5 24t-151.5 70.5t-97 115t-34 158.5zM778 1081v-201h-195v201h195z" />
    <glyph glyph-name="Agrave" unicode="&#xc0;" 
d="M1034 0l-138 382h-563l-137 -382h-196l510 1349h217l501 -1349h-194zM701 954q-13 38 -27 77t-25.5 74t-20 61.5t-12.5 38.5q-4 -12 -12 -39t-19.5 -62t-24 -74t-25.5 -76l-151 -423h463zM609 1444l-300 230v29h197l227 -239v-20h-124z" />
    <glyph glyph-name="Aacute" unicode="&#xc1;" 
d="M1034 0l-138 382h-563l-137 -382h-196l510 1349h217l501 -1349h-194zM701 954q-13 38 -27 77t-25.5 74t-20 61.5t-12.5 38.5q-4 -12 -12 -39t-19.5 -62t-24 -74t-25.5 -76l-151 -423h463zM495 1445v20l227 239h197v-29l-300 -230h-124z" />
    <glyph glyph-name="Acircumflex" unicode="&#xc2;" 
d="M1034 0l-138 382h-563l-137 -382h-196l510 1349h217l501 -1349h-194zM701 954q-13 38 -27 77t-25.5 74t-20 61.5t-12.5 38.5q-4 -12 -12 -39t-19.5 -62t-24 -74t-25.5 -76l-151 -423h463zM945 1465v-20h-105l-219 138h-2l-232 -138h-104v20l254 239h164z" />
    <glyph glyph-name="Atilde" unicode="&#xc3;" 
d="M1034 0l-138 382h-563l-137 -382h-196l510 1349h217l501 -1349h-194zM701 954q-13 38 -27 77t-25.5 74t-20 61.5t-12.5 38.5q-4 -12 -12 -39t-19.5 -62t-24 -74t-25.5 -76l-151 -423h463zM770 1445q-42 0 -84 18.5t-82 41t-78.5 41t-73.5 18.5q-23 0 -37.5 -8t-24 -23
t-14.5 -37t-10 -51h-111q5 45 15 89t32.5 79.5t59.5 57.5t96 22q44 0 86 -18.5t82 -41t77 -41t70 -18.5q23 0 38 8t25 23.5t15 37.5t9 50h112q-5 -44 -15 -88t-31.5 -79.5t-58.5 -58t-97 -22.5z" />
    <glyph glyph-name="Adieresis" unicode="&#xc4;" 
d="M1034 0l-138 382h-563l-137 -382h-196l510 1349h217l501 -1349h-194zM701 954q-13 38 -27 77t-25.5 74t-20 61.5t-12.5 38.5q-4 -12 -12 -39t-19.5 -62t-24 -74t-25.5 -76l-151 -423h463zM729 1445v184h163v-184h-163zM335 1445v184h165v-184h-165z" />
    <glyph glyph-name="Aring" unicode="&#xc5;" 
d="M1034 0l-138 382h-563l-137 -382h-196l510 1349h217l501 -1349h-194zM701 954q-13 38 -27 77t-25.5 74t-20 61.5t-12.5 38.5q-4 -12 -12 -39t-19.5 -62t-24 -74t-25.5 -76l-151 -423h463zM859 1433q0 -39 -15 -75t-45 -64t-75.5 -44.5t-106.5 -16.5t-106.5 16.5
t-75.5 44.5t-45 64t-15 75t15 75t45 63.5t75.5 44t106.5 16.5t106.5 -16.5t75.5 -44t45 -63.5t15 -75zM738 1433q0 15 -6.5 29.5t-21 26.5t-37.5 19.5t-56 7.5t-56 -7.5t-38 -19.5t-21.5 -26.5t-6.5 -29.5t6.5 -30t21.5 -27t38 -19.5t56 -7.5t56 7.5t37.5 19.5t21 27t6.5 30
z" />
    <glyph glyph-name="AE" unicode="&#xc6;" 
d="M646 412h-335l-142 -412h-168l486 1349h667v-152h-337v-430h327v-150h-327v-465h378v-152h-549v412zM646 1202h-73q-4 -16 -14 -49t-20.5 -69t-21 -70t-16.5 -52l-139 -401h284v641z" />
    <glyph glyph-name="Ccedilla" unicode="&#xc7;" 
d="M314 681q0 -131 20 -232.5t62 -171.5t107.5 -106t157.5 -36q63 0 113.5 24t90 63t68.5 90t50 105l159 -65q-28 -70 -69 -136.5t-99 -119t-135.5 -84.5t-179.5 -32q-141 0 -243.5 50.5t-170 142.5t-100 221t-32.5 287q0 166 32 294.5t98 216t167 133t239 45.5
q101 0 177 -27.5t131.5 -74t94 -107t63.5 -126.5l-168 -65q-15 46 -41 90t-62.5 78t-85 55t-108.5 21q-89 0 -152.5 -34t-104.5 -101.5t-60 -167t-19 -230.5zM837 -258q0 -42 -15 -76.5t-47.5 -59t-84.5 -37.5t-127 -13q-20 0 -42.5 0.5t-47.5 3.5v98q50 -6 86 -6
q41 0 69.5 6.5t45.5 17.5t24.5 27t7.5 35q0 40 -30.5 61t-102.5 21h-28.5t-28.5 -2l65 182h107l-39 -100q94 -3 141 -44.5t47 -113.5z" />
    <glyph glyph-name="Egrave" unicode="&#xc8;" 
d="M162 0v1349h919v-156h-728v-422h668v-154h-668v-461h769v-156h-960zM631 1445l-300 230v29h197l227 -239v-20h-124z" />
    <glyph glyph-name="Eacute" unicode="&#xc9;" 
d="M162 0v1349h919v-156h-728v-422h668v-154h-668v-461h769v-156h-960zM493 1445v20l227 239h197v-29l-300 -230h-124z" />
    <glyph glyph-name="Ecircumflex" unicode="&#xca;" 
d="M162 0v1349h919v-156h-728v-422h668v-154h-668v-461h769v-156h-960zM945 1465v-20h-105l-219 138h-2l-232 -138h-104v20l254 239h164z" />
    <glyph glyph-name="Edieresis" unicode="&#xcb;" 
d="M162 0v1349h919v-156h-728v-422h668v-154h-668v-461h769v-156h-960zM749 1445v184h163v-184h-163zM355 1445v184h165v-184h-165z" />
    <glyph glyph-name="Igrave" unicode="&#xcc;" 
d="M202 1349h823v-156h-316v-1037h316v-156h-823v156h316v1037h-316v156zM621 1445l-300 230v29h197l227 -239v-20h-124z" />
    <glyph glyph-name="Iacute" unicode="&#xcd;" 
d="M202 1349h823v-156h-316v-1037h316v-156h-823v156h316v1037h-316v156zM505 1445v20l227 239h197v-29l-300 -230h-124z" />
    <glyph glyph-name="Icircumflex" unicode="&#xce;" 
d="M202 1349h823v-156h-316v-1037h316v-156h-823v156h316v1037h-316v156zM945 1465v-20h-105l-219 138h-2l-232 -138h-104v20l254 239h164z" />
    <glyph glyph-name="Idieresis" unicode="&#xcf;" 
d="M202 1349h823v-156h-316v-1037h316v-156h-823v156h316v1037h-316v156zM729 1445v184h163v-184h-163zM335 1445v184h165v-184h-165z" />
    <glyph glyph-name="Eth" unicode="&#xd0;" 
d="M1125 688q0 -168 -40 -296.5t-116 -215.5t-186.5 -131.5t-250.5 -44.5h-370v597h-135v149h135v603h311q158 0 279.5 -38.5t204.5 -119.5t125.5 -206t42.5 -297zM642 597h-289v-441h162q212 0 315 133t103 399q0 135 -28 231t-85 156.5t-143 89t-203 28.5h-121v-447h289
v-149z" />
    <glyph glyph-name="Ntilde" unicode="&#xd1;" 
d="M836 0l-520 1130q4 -43 8 -88q3 -38 5.5 -82.5t2.5 -83.5v-876h-170v1349h222l528 -1138q-5 40 -9 86q-4 39 -6.5 88t-2.5 100v864h172v-1349h-230zM770 1446q-42 0 -84 18.5t-82 41t-78.5 41t-73.5 18.5q-23 0 -37.5 -8t-24 -23t-14.5 -37t-10 -51h-111q5 45 15 89
t32.5 79.5t59.5 57.5t96 22q44 0 86 -18.5t82 -41t77 -41t70 -18.5q23 0 38 8t25 23.5t15 37.5t9 50h112q-5 -44 -15 -88t-31.5 -79.5t-58.5 -58t-97 -22.5z" />
    <glyph glyph-name="Ograve" unicode="&#xd2;" 
d="M1126 681q0 -173 -35 -304t-101 -219.5t-161.5 -133t-215.5 -44.5q-127 0 -223 47t-160 136.5t-96 220t-32 297.5q0 173 34 302t99 215t160.5 129t219.5 43q247 0 379 -173.5t132 -515.5zM925 681q0 270 -79 401.5t-231 131.5q-156 0 -234 -131.5t-78 -401.5t79 -408
t232 -138q163 0 237 140t74 406zM616 1445l-300 230v29h197l227 -239v-20h-124z" />
    <glyph glyph-name="Oacute" unicode="&#xd3;" 
d="M1126 681q0 -173 -35 -304t-101 -219.5t-161.5 -133t-215.5 -44.5q-127 0 -223 47t-160 136.5t-96 220t-32 297.5q0 173 34 302t99 215t160.5 129t219.5 43q247 0 379 -173.5t132 -515.5zM925 681q0 270 -79 401.5t-231 131.5q-156 0 -234 -131.5t-78 -401.5t79 -408
t232 -138q163 0 237 140t74 406zM500 1445v20l227 239h197v-29l-300 -230h-124z" />
    <glyph glyph-name="Ocircumflex" unicode="&#xd4;" 
d="M1126 681q0 -173 -35 -304t-101 -219.5t-161.5 -133t-215.5 -44.5q-127 0 -223 47t-160 136.5t-96 220t-32 297.5q0 173 34 302t99 215t160.5 129t219.5 43q247 0 379 -173.5t132 -515.5zM925 681q0 270 -79 401.5t-231 131.5q-156 0 -234 -131.5t-78 -401.5t79 -408
t232 -138q163 0 237 140t74 406zM945 1465v-20h-105l-219 138h-2l-232 -138h-104v20l254 239h164z" />
    <glyph glyph-name="Otilde" unicode="&#xd5;" 
d="M1126 681q0 -173 -35 -304t-101 -219.5t-161.5 -133t-215.5 -44.5q-127 0 -223 47t-160 136.5t-96 220t-32 297.5q0 173 34 302t99 215t160.5 129t219.5 43q247 0 379 -173.5t132 -515.5zM925 681q0 270 -79 401.5t-231 131.5q-156 0 -234 -131.5t-78 -401.5t79 -408
t232 -138q163 0 237 140t74 406zM770 1445q-42 0 -84 18.5t-82 41t-78.5 41t-73.5 18.5q-23 0 -37.5 -8t-24 -23t-14.5 -37t-10 -51h-111q5 45 15 89t32.5 79.5t59.5 57.5t96 22q44 0 86 -18.5t82 -41t77 -41t70 -18.5q23 0 38 8t25 23.5t15 37.5t9 50h112q-5 -44 -15 -88
t-31.5 -79.5t-58.5 -58t-97 -22.5z" />
    <glyph glyph-name="Odieresis" unicode="&#xd6;" 
d="M1126 681q0 -173 -35 -304t-101 -219.5t-161.5 -133t-215.5 -44.5q-127 0 -223 47t-160 136.5t-96 220t-32 297.5q0 173 34 302t99 215t160.5 129t219.5 43q247 0 379 -173.5t132 -515.5zM925 681q0 270 -79 401.5t-231 131.5q-156 0 -234 -131.5t-78 -401.5t79 -408
t232 -138q163 0 237 140t74 406zM732 1445v184h163v-184h-163zM338 1445v184h165v-184h-165z" />
    <glyph glyph-name="multiply" unicode="&#xd7;" 
d="M157 330l354 354l-352 352l104 103l350 -353l350 351l105 -105l-350 -348l352 -352l-102 -105l-353 353l-356 -355z" />
    <glyph glyph-name="Oslash" unicode="&#xd8;" 
d="M1126 681q0 -173 -35 -304t-101 -219.5t-161.5 -133t-215.5 -44.5q-111 0 -197 35t-149 103l-117 -156l-94 65l141 189q-48 88 -71.5 204t-23.5 261q0 173 34 302t99 215t160.5 129t219.5 43q217 0 345 -134l116 156l94 -65l-140 -187q48 -85 72 -199t24 -260zM925 681
q0 164 -30 278l-512 -686q79 -138 231 -138q163 0 237 140t74 406zM303 681q0 -166 30 -282l512 684q-39 66 -97 98.5t-133 32.5q-156 0 -234 -131.5t-78 -401.5z" />
    <glyph glyph-name="Ugrave" unicode="&#xd9;" 
d="M1085 490q0 -137 -29 -234t-88.5 -158.5t-150 -89.5t-212.5 -28q-116 0 -203 26.5t-144.5 85t-86.5 152t-29 228.5v877h191v-851q0 -97 12.5 -166t43 -113t83 -64t132.5 -20q83 0 138.5 20t89.5 64.5t48.5 116.5t14.5 175v838h190v-859zM605 1445l-300 230v29h197
l227 -239v-20h-124z" />
    <glyph glyph-name="Uacute" unicode="&#xda;" 
d="M1085 490q0 -137 -29 -234t-88.5 -158.5t-150 -89.5t-212.5 -28q-116 0 -203 26.5t-144.5 85t-86.5 152t-29 228.5v877h191v-851q0 -97 12.5 -166t43 -113t83 -64t132.5 -20q83 0 138.5 20t89.5 64.5t48.5 116.5t14.5 175v838h190v-859zM488 1445v20l227 239h197v-29
l-300 -230h-124z" />
    <glyph glyph-name="Ucircumflex" unicode="&#xdb;" 
d="M1085 490q0 -137 -29 -234t-88.5 -158.5t-150 -89.5t-212.5 -28q-116 0 -203 26.5t-144.5 85t-86.5 152t-29 228.5v877h191v-851q0 -97 12.5 -166t43 -113t83 -64t132.5 -20q83 0 138.5 20t89.5 64.5t48.5 116.5t14.5 175v838h190v-859zM945 1465v-20h-105l-219 138h-2
l-232 -138h-104v20l254 239h164z" />
    <glyph glyph-name="Udieresis" unicode="&#xdc;" 
d="M1085 490q0 -137 -29 -234t-88.5 -158.5t-150 -89.5t-212.5 -28q-116 0 -203 26.5t-144.5 85t-86.5 152t-29 228.5v877h191v-851q0 -97 12.5 -166t43 -113t83 -64t132.5 -20q83 0 138.5 20t89.5 64.5t48.5 116.5t14.5 175v838h190v-859zM729 1445v184h163v-184h-163z
M335 1445v184h165v-184h-165z" />
    <glyph glyph-name="Yacute" unicode="&#xdd;" 
d="M708 584v-584h-188v584l-484 765h205l374 -611l372 611h205zM503 1445v20l227 239h197v-29l-300 -230h-124z" />
    <glyph glyph-name="Thorn" unicode="&#xde;" 
d="M1119 692q0 -88 -29.5 -167.5t-90 -139.5t-151.5 -95.5t-214 -35.5h-281v-254h-191v1349h191v-235h269q125 0 218 -30t155 -85.5t93 -133.5t31 -173zM927 688q0 134 -82 208.5t-246 74.5h-246v-576h254q82 0 142.5 22t100 61.5t58.5 93t19 116.5z" />
    <glyph glyph-name="germandbls" unicode="&#xdf;" 
d="M1167 295q0 -66 -20.5 -125t-64 -103t-111 -70t-162.5 -26q-80 0 -154 12.5t-129 36.5l-2 164q26 -15 59 -28t70 -22t76 -14t76 -5q92 0 141 47.5t49 126.5q0 59 -27 100t-67.5 72.5t-88 60t-88 64t-67.5 82.5t-27 117q0 51 16.5 87.5t41 65.5t53.5 53t53.5 50t41 57.5
t16.5 74.5q0 37 -16.5 68t-48 53.5t-76.5 35.5t-102 13q-68 0 -121.5 -17.5t-90 -56t-56 -99.5t-19.5 -149v-1021h-180v1027q0 119 31.5 205t91.5 142t147 83t197 27q102 0 179.5 -23t130 -63t79 -94.5t26.5 -116.5q0 -59 -16.5 -102.5t-42 -77t-54.5 -59.5t-54.5 -50.5
t-42 -49.5t-16.5 -57q0 -40 27.5 -70.5t68.5 -59.5t88.5 -61t88.5 -74t68.5 -97.5t27.5 -133.5z" />
    <glyph glyph-name="agrave" unicode="&#xe0;" 
d="M1101 111q15 0 30 2t29 5v-112q-34 -8 -67.5 -12t-71.5 -4q-51 0 -87.5 13.5t-59.5 41t-35 68t-15 94.5h-6q-28 -52 -62 -94t-78 -71.5t-101 -45.5t-131 -16q-158 0 -238 86t-80 236q0 107 39.5 175.5t103.5 107.5t145.5 54.5t165.5 16.5l236 4v59q0 67 -13.5 114t-41 76
t-69.5 42.5t-98 13.5q-50 0 -90.5 -7.5t-69.5 -27t-47.5 -53t-24.5 -84.5l-188 17q10 64 37.5 117.5t77.5 92.5t125.5 60.5t182.5 21.5q200 0 300.5 -93.5t100.5 -270.5v-466q0 -80 21 -120.5t80 -40.5zM492 117q83 0 144 31.5t101.5 79.5t60.5 106t20 111v89l-190 -4
q-55 -1 -110.5 -8.5t-100 -31.5t-72.5 -69.5t-28 -121.5q0 -82 44.5 -132t130.5 -50zM588 1201l-300 230v29h197l227 -239v-20h-124z" />
    <glyph glyph-name="aacute" unicode="&#xe1;" 
d="M1101 111q15 0 30 2t29 5v-112q-34 -8 -67.5 -12t-71.5 -4q-51 0 -87.5 13.5t-59.5 41t-35 68t-15 94.5h-6q-28 -52 -62 -94t-78 -71.5t-101 -45.5t-131 -16q-158 0 -238 86t-80 236q0 107 39.5 175.5t103.5 107.5t145.5 54.5t165.5 16.5l236 4v59q0 67 -13.5 114t-41 76
t-69.5 42.5t-98 13.5q-50 0 -90.5 -7.5t-69.5 -27t-47.5 -53t-24.5 -84.5l-188 17q10 64 37.5 117.5t77.5 92.5t125.5 60.5t182.5 21.5q200 0 300.5 -93.5t100.5 -270.5v-466q0 -80 21 -120.5t80 -40.5zM492 117q83 0 144 31.5t101.5 79.5t60.5 106t20 111v89l-190 -4
q-55 -1 -110.5 -8.5t-100 -31.5t-72.5 -69.5t-28 -121.5q0 -82 44.5 -132t130.5 -50zM479 1201v20l227 239h197v-29l-300 -230h-124z" />
    <glyph glyph-name="acircumflex" unicode="&#xe2;" 
d="M1101 111q15 0 30 2t29 5v-112q-34 -8 -67.5 -12t-71.5 -4q-51 0 -87.5 13.5t-59.5 41t-35 68t-15 94.5h-6q-28 -52 -62 -94t-78 -71.5t-101 -45.5t-131 -16q-158 0 -238 86t-80 236q0 107 39.5 175.5t103.5 107.5t145.5 54.5t165.5 16.5l236 4v59q0 67 -13.5 114t-41 76
t-69.5 42.5t-98 13.5q-50 0 -90.5 -7.5t-69.5 -27t-47.5 -53t-24.5 -84.5l-188 17q10 64 37.5 117.5t77.5 92.5t125.5 60.5t182.5 21.5q200 0 300.5 -93.5t100.5 -270.5v-466q0 -80 21 -120.5t80 -40.5zM492 117q83 0 144 31.5t101.5 79.5t60.5 106t20 111v89l-190 -4
q-55 -1 -110.5 -8.5t-100 -31.5t-72.5 -69.5t-28 -121.5q0 -82 44.5 -132t130.5 -50zM927 1221v-20h-105l-219 138h-2l-232 -138h-104v20l254 239h164z" />
    <glyph glyph-name="atilde" unicode="&#xe3;" 
d="M1101 111q15 0 30 2t29 5v-112q-34 -8 -67.5 -12t-71.5 -4q-51 0 -87.5 13.5t-59.5 41t-35 68t-15 94.5h-6q-28 -52 -62 -94t-78 -71.5t-101 -45.5t-131 -16q-158 0 -238 86t-80 236q0 107 39.5 175.5t103.5 107.5t145.5 54.5t165.5 16.5l236 4v59q0 67 -13.5 114t-41 76
t-69.5 42.5t-98 13.5q-50 0 -90.5 -7.5t-69.5 -27t-47.5 -53t-24.5 -84.5l-188 17q10 64 37.5 117.5t77.5 92.5t125.5 60.5t182.5 21.5q200 0 300.5 -93.5t100.5 -270.5v-466q0 -80 21 -120.5t80 -40.5zM492 117q83 0 144 31.5t101.5 79.5t60.5 106t20 111v89l-190 -4
q-55 -1 -110.5 -8.5t-100 -31.5t-72.5 -69.5t-28 -121.5q0 -82 44.5 -132t130.5 -50zM762 1201q-42 0 -84 18.5t-82 41t-78.5 41t-73.5 18.5q-23 0 -37.5 -8t-24 -23t-14.5 -37t-10 -51h-111q5 45 15 89t32.5 79.5t59.5 57.5t96 22q44 0 86 -18.5t82 -41t77 -41t70 -18.5
q23 0 38 8t25 23.5t15 37.5t9 50h112q-5 -44 -15 -88t-31.5 -79.5t-58.5 -58t-97 -22.5z" />
    <glyph glyph-name="adieresis" unicode="&#xe4;" 
d="M1101 111q15 0 30 2t29 5v-112q-34 -8 -67.5 -12t-71.5 -4q-51 0 -87.5 13.5t-59.5 41t-35 68t-15 94.5h-6q-28 -52 -62 -94t-78 -71.5t-101 -45.5t-131 -16q-158 0 -238 86t-80 236q0 107 39.5 175.5t103.5 107.5t145.5 54.5t165.5 16.5l236 4v59q0 67 -13.5 114t-41 76
t-69.5 42.5t-98 13.5q-50 0 -90.5 -7.5t-69.5 -27t-47.5 -53t-24.5 -84.5l-188 17q10 64 37.5 117.5t77.5 92.5t125.5 60.5t182.5 21.5q200 0 300.5 -93.5t100.5 -270.5v-466q0 -80 21 -120.5t80 -40.5zM492 117q83 0 144 31.5t101.5 79.5t60.5 106t20 111v89l-190 -4
q-55 -1 -110.5 -8.5t-100 -31.5t-72.5 -69.5t-28 -121.5q0 -82 44.5 -132t130.5 -50zM713 1219v184h163v-184h-163zM319 1219v184h165v-184h-165z" />
    <glyph glyph-name="aring" unicode="&#xe5;" 
d="M1101 111q15 0 30 2t29 5v-112q-34 -8 -67.5 -12t-71.5 -4q-51 0 -87.5 13.5t-59.5 41t-35 68t-15 94.5h-6q-28 -52 -62 -94t-78 -71.5t-101 -45.5t-131 -16q-158 0 -238 86t-80 236q0 107 39.5 175.5t103.5 107.5t145.5 54.5t165.5 16.5l236 4v59q0 67 -13.5 114t-41 76
t-69.5 42.5t-98 13.5q-50 0 -90.5 -7.5t-69.5 -27t-47.5 -53t-24.5 -84.5l-188 17q10 64 37.5 117.5t77.5 92.5t125.5 60.5t182.5 21.5q200 0 300.5 -93.5t100.5 -270.5v-466q0 -80 21 -120.5t80 -40.5zM492 117q83 0 144 31.5t101.5 79.5t60.5 106t20 111v89l-190 -4
q-55 -1 -110.5 -8.5t-100 -31.5t-72.5 -69.5t-28 -121.5q0 -82 44.5 -132t130.5 -50zM848 1348q0 -39 -15 -75t-45 -64t-75.5 -44.5t-106.5 -16.5t-106.5 16.5t-75.5 44.5t-45 64t-15 75t15 75t45 63.5t75.5 44t106.5 16.5t106.5 -16.5t75.5 -44t45 -63.5t15 -75zM727 1348
q0 15 -6.5 29.5t-21 26.5t-37.5 19.5t-56 7.5t-56 -7.5t-38 -19.5t-21.5 -26.5t-6.5 -29.5t6.5 -30t21.5 -27t38 -19.5t56 -7.5t56 7.5t37.5 19.5t21 27t6.5 30z" />
    <glyph glyph-name="ae" unicode="&#xe6;" 
d="M679 503v-17q1 -82 11.5 -150t32.5 -117t57 -76.5t84 -27.5q75 0 119.5 47t60.5 119l138 -45q-12 -45 -33.5 -90.5t-58 -82t-91 -60t-131.5 -23.5q-57 0 -103 12t-82 39.5t-62.5 72t-44.5 108.5q-21 -49 -48 -91.5t-63.5 -73.5t-82.5 -49t-104 -18q-68 0 -116.5 22
t-80 64t-46.5 101.5t-15 134.5q0 107 28.5 175.5t75 107.5t105.5 54.5t121 16.5l167 4v59q0 67 -7.5 114t-24 76t-42.5 42.5t-62 13.5q-32 0 -57.5 -7.5t-44.5 -27t-30.5 -53t-15.5 -84.5l-168 17q8 64 28 117.5t57 92.5t93.5 60.5t136.5 21.5q91 0 151.5 -35t95.5 -104
q45 74 107.5 106.5t138.5 32.5q96 0 160.5 -44t103.5 -121.5t55 -182.5t16 -227v-24h-529zM189 299q0 -82 28.5 -132t85.5 -50q56 0 96.5 31.5t66.5 79.5t38.5 106t12.5 111v89l-122 -4q-37 -1 -74 -8.5t-66 -31.5t-47.5 -69.5t-18.5 -121.5zM859 969q-28 0 -59 -14.5
t-56.5 -51.5t-43 -100.5t-19.5 -161.5h361q-9 171 -53 249.5t-130 78.5z" />
    <glyph glyph-name="ccedilla" unicode="&#xe7;" 
d="M130 542q0 163 43 271t113.5 172t160.5 90.5t185 26.5q98 0 175 -25t132.5 -68.5t90.5 -102.5t48 -127l-192 -14q-16 91 -80 143.5t-182 52.5q-86 0 -144.5 -27.5t-94 -80t-51 -130t-15.5 -177.5t15.5 -179.5t51 -134.5t94 -84t143.5 -29q108 0 179 53t88 162l190 -12
q-9 -67 -43 -129t-91 -109t-136 -75.5t-179 -28.5q-137 0 -232.5 43t-155 118.5t-86.5 178t-27 222.5zM820 -258q0 -42 -15 -76.5t-47.5 -59t-84.5 -37.5t-127 -13q-20 0 -42.5 0.5t-47.5 3.5v98q50 -6 86 -6q41 0 69.5 6.5t45.5 17.5t24.5 27t7.5 35q0 40 -30.5 61
t-102.5 21h-28.5t-28.5 -2l65 182h107l-39 -100q94 -3 141 -44.5t47 -113.5z" />
    <glyph glyph-name="egrave" unicode="&#xe8;" 
d="M322 503q0 -85 19 -156.5t57 -123t94.5 -80t130.5 -28.5q55 0 101.5 12.5t83.5 34.5t62 52.5t37 66.5l158 -45q-16 -45 -48 -90.5t-85 -82t-129 -60t-180 -23.5q-115 0 -206 36t-154 107t-96.5 177.5t-33.5 247.5q0 156 39.5 262t106.5 171t154.5 93t183.5 28
q131 0 221.5 -42t147.5 -117.5t82.5 -181.5t25.5 -234v-24h-772zM619 969q-46 0 -96.5 -14.5t-93.5 -51.5t-72.5 -100.5t-32.5 -161.5h584q-8 94 -34 157t-64.5 101t-87.5 54t-103 16zM623 1201l-300 230v29h197l227 -239v-20h-124z" />
    <glyph glyph-name="eacute" unicode="&#xe9;" 
d="M322 503q0 -85 19 -156.5t57 -123t94.5 -80t130.5 -28.5q55 0 101.5 12.5t83.5 34.5t62 52.5t37 66.5l158 -45q-16 -45 -48 -90.5t-85 -82t-129 -60t-180 -23.5q-115 0 -206 36t-154 107t-96.5 177.5t-33.5 247.5q0 156 39.5 262t106.5 171t154.5 93t183.5 28
q131 0 221.5 -42t147.5 -117.5t82.5 -181.5t25.5 -234v-24h-772zM619 969q-46 0 -96.5 -14.5t-93.5 -51.5t-72.5 -100.5t-32.5 -161.5h584q-8 94 -34 157t-64.5 101t-87.5 54t-103 16zM513 1201v20l227 239h197v-29l-300 -230h-124z" />
    <glyph glyph-name="ecircumflex" unicode="&#xea;" 
d="M322 503q0 -85 19 -156.5t57 -123t94.5 -80t130.5 -28.5q55 0 101.5 12.5t83.5 34.5t62 52.5t37 66.5l158 -45q-16 -45 -48 -90.5t-85 -82t-129 -60t-180 -23.5q-115 0 -206 36t-154 107t-96.5 177.5t-33.5 247.5q0 156 39.5 262t106.5 171t154.5 93t183.5 28
q131 0 221.5 -42t147.5 -117.5t82.5 -181.5t25.5 -234v-24h-772zM619 969q-46 0 -96.5 -14.5t-93.5 -51.5t-72.5 -100.5t-32.5 -161.5h584q-8 94 -34 157t-64.5 101t-87.5 54t-103 16zM952 1221v-20h-105l-219 138h-2l-232 -138h-104v20l254 239h164z" />
    <glyph glyph-name="edieresis" unicode="&#xeb;" 
d="M322 503q0 -85 19 -156.5t57 -123t94.5 -80t130.5 -28.5q55 0 101.5 12.5t83.5 34.5t62 52.5t37 66.5l158 -45q-16 -45 -48 -90.5t-85 -82t-129 -60t-180 -23.5q-115 0 -206 36t-154 107t-96.5 177.5t-33.5 247.5q0 156 39.5 262t106.5 171t154.5 93t183.5 28
q131 0 221.5 -42t147.5 -117.5t82.5 -181.5t25.5 -234v-24h-772zM619 969q-46 0 -96.5 -14.5t-93.5 -51.5t-72.5 -100.5t-32.5 -161.5h584q-8 94 -34 157t-64.5 101t-87.5 54t-103 16zM737 1219v184h163v-184h-163zM343 1219v184h165v-184h-165z" />
    <glyph glyph-name="igrave" unicode="&#xec;" 
d="M745 142h380v-142h-982v142h422v798h-319v142h499v-940zM635 1201l-300 230v29h197l227 -239v-20h-124z" />
    <glyph glyph-name="iacute" unicode="&#xed;" 
d="M745 142h380v-142h-982v142h422v798h-319v142h499v-940zM506 1201v20l227 239h197v-29l-300 -230h-124z" />
    <glyph glyph-name="icircumflex" unicode="&#xee;" 
d="M745 142h380v-142h-982v142h422v798h-319v142h499v-940zM955 1221v-20h-105l-219 138h-2l-232 -138h-104v20l254 239h164z" />
    <glyph glyph-name="idieresis" unicode="&#xef;" 
d="M745 142h380v-142h-982v142h422v798h-319v142h499v-940zM770 1219v184h163v-184h-163zM376 1219v184h165v-184h-165z" />
    <glyph glyph-name="eth" unicode="&#xf0;" 
d="M612 979q71 0 129.5 -16t101.5 -43q-39 89 -91.5 168.5t-128.5 148.5l-260 -115l-55 110l218 94q-56 45 -116 84t-126 74h209q45 -20 86.5 -45.5t83.5 -56.5l264 114l55 -108l-211 -92q164 -149 247.5 -342.5t83.5 -437.5v-6q0 -121 -28.5 -219t-88.5 -167t-154 -106.5
t-226 -37.5q-125 0 -215.5 36.5t-149.5 102.5t-87 158.5t-28 203.5q0 107 26 198t84 158t151 104.5t226 37.5zM913 481q0 94 -16.5 162.5t-52 113.5t-92 67t-136.5 22q-81 0 -138.5 -22.5t-94 -68.5t-53 -114t-16.5 -160q0 -190 72 -279t217 -89q81 0 140 22t96.5 67
t55.5 114.5t18 164.5z" />
    <glyph glyph-name="ntilde" unicode="&#xf1;" 
d="M868 0v695q0 80 -16.5 131.5t-46 82t-69.5 42.5t-88 12q-59 0 -110.5 -22.5t-90 -65t-60.5 -105t-22 -143.5v-627h-180v851q0 34 -0.5 71.5t-1.5 71t-2 57.5t-2 31h170q1 -5 2 -27t2.5 -50.5t2.5 -58t1 -49.5h3q24 47 56.5 85t75 64.5t95.5 41t119 14.5q83 0 147 -22
t107.5 -68t66 -118t22.5 -173v-721h-181zM780 1201q-42 0 -84 18.5t-82 41t-78.5 41t-73.5 18.5q-23 0 -37.5 -8t-24 -23t-14.5 -37t-10 -51h-111q5 45 15 89t32.5 79.5t59.5 57.5t96 22q44 0 86 -18.5t82 -41t77 -41t70 -18.5q23 0 38 8t25 23.5t15 37.5t9 50h112
q-5 -44 -15 -88t-31.5 -79.5t-58.5 -58t-97 -22.5z" />
    <glyph glyph-name="ograve" unicode="&#xf2;" 
d="M1097 542q0 -142 -33.5 -247.5t-96.5 -175.5t-153.5 -104.5t-204.5 -34.5q-109 0 -197.5 34t-151 104t-96.5 175.5t-34 248.5q0 279 126.5 419.5t358.5 140.5q244 0 363 -139t119 -421zM908 542q0 126 -21.5 208t-60 131t-91.5 68.5t-117 19.5q-65 0 -120 -20.5
t-94.5 -70t-62 -131.5t-22.5 -205q0 -126 23.5 -208.5t63 -131.5t92 -69t109.5 -20q65 0 120.5 19.5t95.5 68.5t62.5 132t22.5 209zM632 1201l-300 230v29h197l227 -239v-20h-124z" />
    <glyph glyph-name="oacute" unicode="&#xf3;" 
d="M1097 542q0 -142 -33.5 -247.5t-96.5 -175.5t-153.5 -104.5t-204.5 -34.5q-109 0 -197.5 34t-151 104t-96.5 175.5t-34 248.5q0 279 126.5 419.5t358.5 140.5q244 0 363 -139t119 -421zM908 542q0 126 -21.5 208t-60 131t-91.5 68.5t-117 19.5q-65 0 -120 -20.5
t-94.5 -70t-62 -131.5t-22.5 -205q0 -126 23.5 -208.5t63 -131.5t92 -69t109.5 -20q65 0 120.5 19.5t95.5 68.5t62.5 132t22.5 209zM503 1201v20l227 239h197v-29l-300 -230h-124z" />
    <glyph glyph-name="ocircumflex" unicode="&#xf4;" 
d="M1097 542q0 -142 -33.5 -247.5t-96.5 -175.5t-153.5 -104.5t-204.5 -34.5q-109 0 -197.5 34t-151 104t-96.5 175.5t-34 248.5q0 279 126.5 419.5t358.5 140.5q244 0 363 -139t119 -421zM908 542q0 126 -21.5 208t-60 131t-91.5 68.5t-117 19.5q-65 0 -120 -20.5
t-94.5 -70t-62 -131.5t-22.5 -205q0 -126 23.5 -208.5t63 -131.5t92 -69t109.5 -20q65 0 120.5 19.5t95.5 68.5t62.5 132t22.5 209zM945 1221v-20h-105l-219 138h-2l-232 -138h-104v20l254 239h164z" />
    <glyph glyph-name="otilde" unicode="&#xf5;" 
d="M1097 542q0 -142 -33.5 -247.5t-96.5 -175.5t-153.5 -104.5t-204.5 -34.5q-109 0 -197.5 34t-151 104t-96.5 175.5t-34 248.5q0 279 126.5 419.5t358.5 140.5q244 0 363 -139t119 -421zM908 542q0 126 -21.5 208t-60 131t-91.5 68.5t-117 19.5q-65 0 -120 -20.5
t-94.5 -70t-62 -131.5t-22.5 -205q0 -126 23.5 -208.5t63 -131.5t92 -69t109.5 -20q65 0 120.5 19.5t95.5 68.5t62.5 132t22.5 209zM770 1201q-42 0 -84 18.5t-82 41t-78.5 41t-73.5 18.5q-23 0 -37.5 -8t-24 -23t-14.5 -37t-10 -51h-111q5 45 15 89t32.5 79.5t59.5 57.5
t96 22q44 0 86 -18.5t82 -41t77 -41t70 -18.5q23 0 38 8t25 23.5t15 37.5t9 50h112q-5 -44 -15 -88t-31.5 -79.5t-58.5 -58t-97 -22.5z" />
    <glyph glyph-name="odieresis" unicode="&#xf6;" 
d="M1097 542q0 -142 -33.5 -247.5t-96.5 -175.5t-153.5 -104.5t-204.5 -34.5q-109 0 -197.5 34t-151 104t-96.5 175.5t-34 248.5q0 279 126.5 419.5t358.5 140.5q244 0 363 -139t119 -421zM908 542q0 126 -21.5 208t-60 131t-91.5 68.5t-117 19.5q-65 0 -120 -20.5
t-94.5 -70t-62 -131.5t-22.5 -205q0 -126 23.5 -208.5t63 -131.5t92 -69t109.5 -20q65 0 120.5 19.5t95.5 68.5t62.5 132t22.5 209zM729 1219v184h163v-184h-163zM335 1219v184h165v-184h-165z" />
    <glyph glyph-name="divide" unicode="&#xf7;" 
d="M529 958v183h168v-183h-168zM116 608v146h995v-146h-995zM529 223v183h168v-183h-168z" />
    <glyph glyph-name="oslash" unicode="&#xf8;" 
d="M1117 542q0 -142 -35 -247.5t-100.5 -175.5t-159.5 -104.5t-213 -34.5q-101 0 -184 26.5t-147 80.5l-77 -87l-76 68l84 95q-48 69 -73.5 163t-25.5 216q0 140 33.5 244.5t98 175t158.5 105.5t215 35q213 0 335 -100l72 82l78 -68l-80 -90q97 -137 97 -384zM928 542
q0 76 -8.5 136t-24.5 106l-509 -576q43 -53 100 -74t121 -21q69 0 128 19.5t102 68.5t67 132t24 209zM299 542q0 -75 8.5 -133.5t25.5 -104.5l509 576q-42 50 -98.5 69.5t-125.5 19.5t-127.5 -20.5t-101 -70t-66.5 -131.5t-24 -205z" />
    <glyph glyph-name="ugrave" unicode="&#xf9;" 
d="M365 1082v-686q0 -79 11.5 -132t38 -85.5t69 -46t105.5 -13.5q64 0 115.5 22.5t88 65t56 105t19.5 143.5v627h181v-851q0 -34 0.5 -71.5t1.5 -71t2 -57.5t2 -31h-170q-1 5 -2 27t-2.5 50.5t-2.5 58t-1 49.5h-3q-26 -47 -57 -85t-72 -64.5t-94 -41t-123 -14.5
q-90 0 -155 22t-107 68t-61.5 118.5t-19.5 172.5v721h180zM608 1201l-300 230v29h197l227 -239v-20h-124z" />
    <glyph glyph-name="uacute" unicode="&#xfa;" 
d="M365 1082v-686q0 -79 11.5 -132t38 -85.5t69 -46t105.5 -13.5q64 0 115.5 22.5t88 65t56 105t19.5 143.5v627h181v-851q0 -34 0.5 -71.5t1.5 -71t2 -57.5t2 -31h-170q-1 5 -2 27t-2.5 50.5t-2.5 58t-1 49.5h-3q-26 -47 -57 -85t-72 -64.5t-94 -41t-123 -14.5
q-90 0 -155 22t-107 68t-61.5 118.5t-19.5 172.5v721h180zM492 1201v20l227 239h197v-29l-300 -230h-124z" />
    <glyph glyph-name="ucircumflex" unicode="&#xfb;" 
d="M365 1082v-686q0 -79 11.5 -132t38 -85.5t69 -46t105.5 -13.5q64 0 115.5 22.5t88 65t56 105t19.5 143.5v627h181v-851q0 -34 0.5 -71.5t1.5 -71t2 -57.5t2 -31h-170q-1 5 -2 27t-2.5 50.5t-2.5 58t-1 49.5h-3q-26 -47 -57 -85t-72 -64.5t-94 -41t-123 -14.5
q-90 0 -155 22t-107 68t-61.5 118.5t-19.5 172.5v721h180zM945 1221v-20h-105l-219 138h-2l-232 -138h-104v20l254 239h164z" />
    <glyph glyph-name="udieresis" unicode="&#xfc;" 
d="M365 1082v-686q0 -79 11.5 -132t38 -85.5t69 -46t105.5 -13.5q64 0 115.5 22.5t88 65t56 105t19.5 143.5v627h181v-851q0 -34 0.5 -71.5t1.5 -71t2 -57.5t2 -31h-170q-1 5 -2 27t-2.5 50.5t-2.5 58t-1 49.5h-3q-26 -47 -57 -85t-72 -64.5t-94 -41t-123 -14.5
q-90 0 -155 22t-107 68t-61.5 118.5t-19.5 172.5v721h180zM729 1219v184h163v-184h-163zM335 1219v184h165v-184h-165z" />
    <glyph glyph-name="yacute" unicode="&#xfd;" 
d="M705 0q-37 -98 -77 -176.5t-89 -134t-109 -85t-138 -29.5q-34 0 -63 2t-61 9v135q19 -3 43 -4.5t41 -1.5q79 0 148.5 59t117.5 188l18 49l-470 1071h192l264 -642q11 -27 27 -66.5t31 -78t26.5 -69.5t13.5 -40q3 11 14.5 41.5t26.5 68t30.5 77t27.5 68.5l252 641h190z
M509 1201v20l227 239h197v-29l-300 -230h-124z" />
    <glyph glyph-name="thorn" unicode="&#xfe;" 
d="M904 546q0 100 -12 178t-41.5 131.5t-78 81.5t-121.5 28q-59 0 -111 -18.5t-90.5 -67t-61 -134.5t-22.5 -221q0 -115 18.5 -193.5t54.5 -127t89 -69.5t121 -21q73 0 122 28.5t78.5 83.5t42 136t12.5 185zM368 904q25 52 56.5 90t71.5 62.5t90 36t112 11.5q110 0 185 -40
t121 -113.5t66 -176.5t20 -228q0 -123 -20 -227t-66 -179t-121 -117.5t-185 -42.5q-55 0 -105 10t-93 32t-76.5 57t-56.5 85h-5q1 -2 1.5 -17.5t1 -38.5t1 -52t0.5 -58v-423h-181v1909h180v-423q0 -29 -0.5 -57.5t-1.5 -50.5q-1 -26 -2 -49h7z" />
    <glyph glyph-name="ydieresis" unicode="&#xff;" 
d="M705 0q-37 -98 -77 -176.5t-89 -134t-109 -85t-138 -29.5q-34 0 -63 2t-61 9v135q19 -3 43 -4.5t41 -1.5q79 0 148.5 59t117.5 188l18 49l-470 1071h192l264 -642q11 -27 27 -66.5t31 -78t26.5 -69.5t13.5 -40q3 11 14.5 41.5t26.5 68t30.5 77t27.5 68.5l252 641h190z
M734 1219v184h163v-184h-163zM340 1219v184h165v-184h-165z" />
    <glyph glyph-name="dotlessi" unicode="&#x131;" 
d="M745 142h380v-142h-982v142h422v798h-319v142h499v-940z" />
    <glyph glyph-name="OE" unicode="&#x152;" 
d="M609 0q-23 -2 -47.5 -3.5t-50.5 -1.5q-255 0 -373 169t-118 517q0 180 30.5 308t92 209t154 119t216.5 38q58 0 109 -6h558v-152h-398v-440h367v-150h-367v-455h439v-152h-612zM512 140q22 0 51.5 1t48.5 5v1057q-19 3 -48.5 4.5t-50.5 1.5q-78 0 -136.5 -29t-97.5 -92.5
t-58.5 -163.5t-19.5 -243q0 -142 20 -244t59.5 -168t97.5 -97.5t134 -31.5z" />
    <glyph glyph-name="oe" unicode="&#x153;" 
d="M712 503q0 -85 9.5 -156.5t30 -123t52.5 -80t76 -28.5q65 0 104 47t53 119l138 -45q-11 -45 -31 -90.5t-54 -82t-85 -60t-123 -23.5q-182 0 -263 183q-42 -93 -108.5 -138t-157.5 -45q-75 0 -135 34t-102.5 104t-65 175.5t-22.5 248.5q0 279 85 419.5t247 140.5
q187 0 266 -177q45 94 111.5 135.5t147.5 41.5q91 0 152.5 -44t98.5 -121.5t52.5 -182.5t15.5 -227v-24h-492zM543 542q0 126 -12 208t-34 131t-53.5 68.5t-70.5 19.5t-71.5 -20.5t-56 -70t-36 -131.5t-12.5 -205q0 -126 13.5 -208.5t36.5 -131.5t54 -69t66 -20
q40 0 72.5 19.5t55.5 68.5t35.5 132t12.5 209zM875 969q-25 0 -52.5 -14.5t-51 -51.5t-39.5 -100.5t-18 -161.5h324q-8 171 -48 249.5t-115 78.5z" />
    <glyph glyph-name="circumflex" unicode="&#x2c6;" 
d="M945 1221v-20h-105l-219 138h-2l-232 -138h-104v20l254 239h164z" />
    <glyph glyph-name="ring" unicode="&#x2da;" 
d="M856 1348q0 -39 -15 -75t-45 -64t-75.5 -44.5t-106.5 -16.5t-106.5 16.5t-75.5 44.5t-45 64t-15 75t15 75t45 63.5t75.5 44t106.5 16.5t106.5 -16.5t75.5 -44t45 -63.5t15 -75zM735 1348q0 15 -6.5 29.5t-21 26.5t-37.5 19.5t-56 7.5t-56 -7.5t-38 -19.5t-21.5 -26.5
t-6.5 -29.5t6.5 -30t21.5 -27t38 -19.5t56 -7.5t56 7.5t37.5 19.5t21 27t6.5 30z" />
    <glyph glyph-name="tilde" unicode="&#x2dc;" 
d="M770 1201q-42 0 -84 18.5t-82 41t-78.5 41t-73.5 18.5q-23 0 -37.5 -8t-24 -23t-14.5 -37t-10 -51h-111q5 45 15 89t32.5 79.5t59.5 57.5t96 22q44 0 86 -18.5t82 -41t77 -41t70 -18.5q23 0 38 8t25 23.5t15 37.5t9 50h112q-5 -44 -15 -88t-31.5 -79.5t-58.5 -58
t-97 -22.5z" />
    <glyph glyph-name="endash" unicode="&#x2013;" 
d="M170 451v137h888v-137h-888z" />
    <glyph glyph-name="emdash" unicode="&#x2014;" 
d="M-10 451v137h1248v-137h-1248z" />
    <glyph glyph-name="quoteleft" unicode="&#x2018;" 
d="M833 862l-169 622h-265l311 -622h123z" />
    <glyph glyph-name="quoteright" unicode="&#x2019;" 
d="M399 862l169 622h265l-311 -622h-123z" />
    <glyph glyph-name="quotesinglbase" unicode="&#x201a;" 
d="M349 -363l169 622h265l-311 -622h-123z" />
    <glyph glyph-name="quotedblleft" unicode="&#x201c;" 
d="M612 862l-169 622h-265l311 -622h123zM1051 862l-169 622h-265l311 -622h123z" />
    <glyph glyph-name="quotedblright" unicode="&#x201d;" 
d="M617 862l169 622h265l-311 -622h-123zM178 862l169 622h265l-311 -622h-123z" />
    <glyph glyph-name="quotedblbase" unicode="&#x201e;" 
d="M617 -364l169 622h265l-311 -622h-123zM178 -364l169 622h265l-311 -622h-123z" />
    <glyph glyph-name="bullet" unicode="&#x2022;" 
d="M891 682q0 -58 -22 -109t-60.5 -89t-89.5 -60.5t-109 -22.5q-57 0 -106.5 22.5t-87 60.5t-59 89t-21.5 109q0 57 21.5 107t59 87t87 58.5t106.5 21.5q58 0 109 -21.5t89.5 -58.5t60.5 -87t22 -107z" />
    <glyph glyph-name="guilsinglleft" unicode="&#x2039;" 
d="M682 141l-336 365v63l336 371h177v-31l-335 -372l337 -367v-29h-179z" />
    <glyph glyph-name="guilsinglright" unicode="&#x203a;" 
d="M544 141h-178v29l338 367l-336 372v31h176l337 -371v-63z" />
    <glyph glyph-name="fraction" unicode="&#x2044;" 
d="M322 0h-118l703 1349h115z" />
    <glyph glyph-name="fraction" unicode="&#x2215;" 
d="M322 0h-118l703 1349h115z" />
    <glyph glyph-name="Euro" unicode="&#x20ac;" 
d="M873 463h-459q8 -79 29 -140t59.5 -103t96.5 -63.5t138 -21.5q52 0 95.5 9t81 24t70.5 33.5t63 37.5l76 -135q-42 -28 -86 -51t-92 -39t-102 -25t-116 -9q-120 0 -209 34t-150.5 96.5t-97 151.5t-48.5 198h-131v144h119q-2 23 -3 40t-1 35q0 26 1 43.5t3 35.5h-119v142
h129q29 234 154.5 352t354.5 118q56 0 106 -7t96.5 -21t90 -36t86.5 -52l-82 -140q-58 42 -127 71t-155 29q-73 0 -130 -14t-98.5 -49.5t-67 -96.5t-36.5 -156h461v-141h-475q-1 -14 -1.5 -35.5t-0.5 -42.5q0 -42 3 -74h474v-142z" />
    <glyph glyph-name="uni2219" unicode="&#x2219;" 
d="M496 420v299h235v-299h-235z" />
    <glyph glyph-name="spade" unicode="&#x2660;" horiz-adv-x="1233" 
d="M619 1359q77 -137 254 -364q195 -228 200 -275q32 -70 32 -136v-33q0 -137 -133 -216q-44 -18 -96 -18q-127 0 -205 182h-34v-10q0 -233 68 -356h-177v5q70 124 70 358l-2 3h-32l-38 -73q-70 -109 -175 -109q-153 0 -216 172l-7 60v38q0 150 154 317q258 317 332 453l2 2
h3z" />
    <glyph glyph-name="club" unicode="&#x2663;" horiz-adv-x="1233" 
d="M618 1359q176 0 259 -186q10 -43 13 -89q0 -96 -99 -228l-49 -49h2q61 23 130 23h16q195 0 274 -166q19 -54 19 -104q0 -168 -172 -254q-32 -10 -91 -15q-199 0 -282 226h-2v-8q0 -282 67 -371v-5h-171l-5 5q70 105 70 379v2h-2q-82 -228 -284 -228q-157 0 -241 166
q-20 56 -20 103q0 192 202 260q54 10 96 10h8q70 0 134 -23h3v2q-69 59 -93 115q-49 91 -49 157v12q0 165 176 251q59 15 91 15z" />
    <glyph glyph-name="heart" unicode="&#x2665;" horiz-adv-x="1233" 
d="M315 1359q167 0 262 -193q35 -76 37 -117h2q29 133 104 221q89 89 200 89q172 0 276 -184q26 -68 26 -128q0 -206 -171 -392l-435 -522h-5l-462 566q-138 169 -138 348q0 173 164 275q69 37 140 37z" />
    <glyph glyph-name="diamond" unicode="&#x2666;" horiz-adv-x="1233" 
d="M617 1359l414 -537q57 -69 57 -80l-471 -609q-10 6 -472 609q0 11 92 125z" />
    <glyph glyph-name="onefraction" 
d="M329 589v107h135v513q-13 -26 -36.5 -44t-49 -29.5t-49 -16.5t-36.5 -5v119q18 0 42 6t49.5 19.5t49 35.5t40.5 55h121v-653h116v-107h-382z" />
    <glyph glyph-name="twofraction" 
d="M250 589v97q24 55 61 97.5t79 78.5t84 67.5t76 63.5t55 67.5t21 79.5q0 57 -25.5 89t-85.5 32q-61 0 -90.5 -31t-37.5 -92l-130 5q6 47 25.5 87t52 69t78.5 45.5t107 16.5q120 0 180.5 -56t60.5 -159q0 -55 -23 -99.5t-58.5 -82t-78.5 -70t-84 -64t-75 -64t-50 -70.5h380
v-107h-522z" />
    <glyph glyph-name="threefraciton" 
d="M749 794q0 -54 -19.5 -95.5t-53.5 -70t-81 -43t-103 -14.5q-64 0 -110 18.5t-77 48.5t-48 68t-23 77l136 13q9 -60 41.5 -90.5t80.5 -30.5q54 0 87 30t33 95q0 37 -12.5 60.5t-33 36.5t-47.5 18t-56 5h-41v109h37q68 0 100 28.5t32 94.5q0 53 -27 78t-68 25
q-45 0 -78 -31.5t-39 -88.5l-135 12q7 54 29 94t56 67t76.5 40t90.5 13q58 0 101.5 -15.5t72.5 -43t43.5 -64.5t14.5 -79q0 -66 -33.5 -108.5t-102.5 -68.5v-2q82 -18 119.5 -68t37.5 -118z" />
    <glyph glyph-name="fourfraction" 
d="M699 748v-161h-127v161h-375v99l361 502h141v-500h122v-101h-122zM573 1221q-6 -9 -16.5 -24.5t-22.5 -32.5t-23.5 -33t-18.5 -26l-185 -256h265v260v29v31.5t0.5 29t0.5 22.5z" />
  </font>
</defs>
</svg>
